<?xml version="1.0" standalone="no"?>
<!DOCTYPE svg PUBLIC "-//W3C//DTD SVG 1.1//EN" "http://www.w3.org/Graphics/SVG/1.1/DTD/svg11.dtd" >
<svg xmlns="http://www.w3.org/2000/svg">
<metadata>Generated by IcoMoon</metadata>
<defs>
<font id="meet" horiz-adv-x="1024">
<font-face units-per-em="1024" ascent="960" descent="-64" />
<missing-glyph horiz-adv-x="1024" />
<glyph unicode="&#x20;" horiz-adv-x="512" d="" />
<glyph unicode="&#xe900;" glyph-name="add-page" d="M640-10.671h-256c-231.771 0-330.667 98.896-330.667 330.667v256c0 231.771 98.896 330.667 330.667 330.667h256c231.771 0 330.667-98.896 330.667-330.667v-256c0-231.771-98.896-330.667-330.667-330.667zM384 842.663c-196.885 0-266.667-69.781-266.667-266.667v-256c0-196.875 69.781-266.667 266.667-266.667h256c196.875 0 266.667 69.792 266.667 266.667v256c0 196.885-69.792 266.667-266.667 266.667h-256zM85.333 650.663h853.333v-64h-853.333v64zM512 159.996c-17.677 0-32 14.333-32 32v256c0 17.677 14.323 32 32 32s32-14.323 32-32v-256c0-17.667-14.323-32-32-32zM640 287.996h-256c-17.677 0-32 14.333-32 32s14.323 32 32 32h256c17.667 0 32-14.333 32-32s-14.333-32-32-32z" />
<glyph unicode="&#xe901;" glyph-name="arrow-down" d="M543.994 789.324v-682.667c0-17.677-14.323-32-32-32s-32 14.323-32 32v682.667c0 17.667 14.323 32 32 32s32-14.333 32-32zM799.994 362.657c0-8.156-3.104-16.323-9.312-22.563l-254.583-256c-5.99-6.021-14.125-9.417-22.615-9.437-8.479-0.021-16.635 3.323-22.646 9.312l-257.406 256c-12.521 12.469-12.573 32.729-0.125 45.25 12.458 12.531 32.719 12.594 45.25 0.125l234.719-233.437 232.031 233.312c12.458 12.531 32.729 12.594 45.25 0.125 6.292-6.25 9.437-14.469 9.437-22.688z" />
<glyph unicode="&#xe902;" glyph-name="arrow-left" d="M853.333 415.996h-682.667c-17.677 0-32 14.323-32 32s14.323 32 32 32h682.667c17.667 0 32-14.323 32-32s-14.333-32-32-32zM426.667 159.996c-8.156 0-16.323 3.104-22.563 9.312l-256 254.583c-6.021 5.99-9.417 14.125-9.437 22.615-0.021 8.479 3.323 16.635 9.312 22.646l256 257.406c12.469 12.521 32.729 12.573 45.25 0.125 12.531-12.458 12.594-32.719 0.125-45.25l-233.437-234.719 233.312-232.031c12.531-12.458 12.594-32.729 0.125-45.25-6.25-6.292-14.469-9.437-22.688-9.437z" />
<glyph unicode="&#xe903;" glyph-name="arrow-right" d="M170.667 479.984h682.667c17.677 0 32-14.323 32-32s-14.323-32-32-32h-682.667c-17.667 0-32 14.323-32 32s14.333 32 32 32zM597.333 735.984c8.156 0 16.323-3.104 22.563-9.312l256-254.583c6.021-5.99 9.417-14.125 9.437-22.615 0.021-8.479-3.323-16.635-9.312-22.646l-256-257.406c-12.469-12.521-32.729-12.573-45.25-0.125-12.531 12.458-12.594 32.719-0.125 45.25l233.437 234.719-233.312 232.031c-12.531 12.458-12.594 32.729-0.125 45.25 6.25 6.292 14.469 9.437 22.688 9.437z" />
<glyph unicode="&#xe904;" glyph-name="arrow-swap-horizontal" d="M853.333 501.329h-682.667c-12.948 0-24.615 7.792-29.563 19.75-4.958 11.958-2.219 25.729 6.937 34.875l256 256c12.5 12.5 32.75 12.5 45.25 0 12.5-12.49 12.5-32.76 0-45.25l-201.375-201.375h605.417c17.667 0 32-14.323 32-32s-14.333-32-32-32zM597.333 74.663c-8.188 0-16.375 3.125-22.625 9.375-12.5 12.5-12.5 32.75 0 45.25l201.375 201.375h-605.417c-17.677 0-32 14.333-32 32s14.323 32 32 32h682.667c12.937 0 24.604-7.792 29.563-19.75s2.208-25.729-6.937-34.875l-256-256c-6.25-6.25-14.437-9.375-22.625-9.375z" />
<glyph unicode="&#xe905;" glyph-name="arrow-swap-vertical" d="M458.666 789.331v-682.667c0-12.948-7.792-24.615-19.75-29.563-11.958-4.958-25.729-2.219-34.875 6.937l-256 256c-12.5 12.5-12.5 32.75 0 45.25 12.49 12.5 32.76 12.5 45.25 0l201.375-201.375v605.417c0 17.667 14.323 32 32 32s32-14.333 32-32zM885.332 533.331c0-8.188-3.125-16.375-9.375-22.625-12.5-12.5-32.75-12.5-45.25 0l-201.375 201.375v-605.417c0-17.677-14.333-32-32-32s-32 14.323-32 32v682.667c0 12.937 7.792 24.604 19.75 29.563s25.729 2.208 34.875-6.937l256-256c6.25-6.25 9.375-14.437 9.375-22.625z" />
<glyph unicode="&#xe906;" glyph-name="arrow-up" d="M480.006 106.657v682.667c0 17.677 14.323 32 32 32s32-14.323 32-32v-682.667c0-17.667-14.323-32-32-32s-32 14.333-32 32zM224.006 533.324c0 8.156 3.104 16.323 9.312 22.563l254.583 256c5.99 6.021 14.125 9.417 22.615 9.437 8.479 0.021 16.635-3.323 22.646-9.312l257.406-256c12.521-12.469 12.573-32.729 0.125-45.25-12.458-12.531-32.719-12.594-45.25-0.125l-234.719 233.437-232.031-233.312c-12.458-12.531-32.729-12.594-45.25-0.125-6.292 6.25-9.437 14.469-9.437 22.688z" />
<glyph unicode="&#xe907;" glyph-name="close" d="M256.010 160.017c-8.188 0-16.375 3.125-22.625 9.375-12.5 12.5-12.5 32.75 0 45.25l511.99 511.979c12.5 12.5 32.75 12.5 45.25 0 12.5-12.49 12.5-32.76 0-45.25l-511.99-511.979c-6.25-6.25-14.437-9.375-22.625-9.375zM768 160.017c-8.188 0-16.375 3.125-22.625 9.375l-511.99 511.979c-12.5 12.49-12.5 32.76 0 45.25 12.5 12.5 32.75 12.5 45.25 0l511.99-511.979c12.5-12.5 12.5-32.75 0-45.25-6.25-6.25-14.437-9.375-22.625-9.375z" />
<glyph unicode="&#xe908;" glyph-name="direction-ltr" d="M768 74.663h-512c-17.677 0-32 14.333-32 32s14.323 32 32 32h512c17.667 0 32-14.333 32-32s-14.333-32-32-32zM682.667-10.671c-8.208 0-16.437 3.146-22.688 9.437-12.458 12.521-12.417 32.792 0.125 45.25l62.646 62.312-62.771 63.104c-12.458 12.521-12.417 32.792 0.125 45.25 12.5 12.437 32.792 12.437 45.25-0.125l85.333-85.792c5.979-6.021 9.333-14.167 9.312-22.646-0.021-8.5-3.417-16.625-9.437-22.604l-85.333-84.875c-6.229-6.208-14.396-9.312-22.563-9.312zM512 586.663h-128c-88.229 0-160 71.771-160 160s71.771 160 160 160h384c17.667 0 32-14.323 32-32s-14.333-32-32-32h-384c-52.937 0-96-43.063-96-96s43.063-96 96-96h128c17.677 0 32-14.323 32-32s-14.323-32-32-32zM512 245.329c-17.677 0-32 14.333-32 32v597.333c0 17.677 14.323 32 32 32s32-14.323 32-32v-597.333c0-17.667-14.323-32-32-32zM682.667 245.329c-17.667 0-32 14.333-32 32v597.333c0 17.677 14.333 32 32 32s32-14.323 32-32v-597.333c0-17.667-14.333-32-32-32z" />
<glyph unicode="&#xe909;" glyph-name="direction-rtl" d="M768 74.663h-512c-17.677 0-32 14.333-32 32s14.323 32 32 32h512c17.667 0 32-14.333 32-32s-14.333-32-32-32zM341.333-10.671c-8.167 0-16.323 3.104-22.563 9.312l-85.333 84.875c-6.021 5.979-9.417 14.104-9.437 22.604-0.021 8.479 3.323 16.625 9.312 22.646l85.333 85.792c12.458 12.563 32.729 12.583 45.25 0.125 12.531-12.458 12.594-32.729 0.125-45.25l-62.771-63.104 62.646-62.312c12.531-12.458 12.594-32.729 0.125-45.25-6.25-6.292-14.469-9.437-22.688-9.437zM512 586.663h-128c-88.229 0-160 71.771-160 160s71.771 160 160 160h384c17.667 0 32-14.323 32-32s-14.333-32-32-32h-384c-52.937 0-96-43.063-96-96s43.063-96 96-96h128c17.677 0 32-14.323 32-32s-14.323-32-32-32zM512 245.329c-17.677 0-32 14.333-32 32v597.333c0 17.677 14.323 32 32 32s32-14.323 32-32v-597.333c0-17.667-14.323-32-32-32zM682.667 245.329c-17.667 0-32 14.333-32 32v597.333c0 17.677 14.333 32 32 32s32-14.323 32-32v-597.333c0-17.667-14.333-32-32-32z" />
<glyph unicode="&#xe90a;" glyph-name="down" d="M799.994 576c0-8.156-3.104-16.323-9.312-22.563l-254.583-256c-5.99-6.021-14.125-9.417-22.615-9.437-8.479-0.021-16.635 3.323-22.646 9.312l-257.406 256c-12.521 12.469-12.573 32.729-0.125 45.25 12.458 12.531 32.719 12.594 45.25 0.125l234.719-233.437 232.031 233.312c12.458 12.531 32.729 12.594 45.25 0.125 6.292-6.25 9.437-14.469 9.437-22.688z" />
<glyph unicode="&#xe90b;" glyph-name="hand" d="M543.040 839.094c4.5 0 8.952-0.886 13.107-2.607s7.932-4.244 11.11-7.424c3.182-3.18 5.704-6.956 7.427-11.111 1.719-4.156 2.606-8.609 2.606-13.106v-356.844c0-15.864 12.856-28.726 28.721-28.726s28.725 12.861 28.725 28.726v130.351l0.010 0.392v0.137l0.005 1.251 0.090 132.914c0 2.063 0.005 3.783 0.010 5.189 0.008 3.538 0.009 5.081-0.019 5.081-0.006 0-0.014-0.072-0.023-0.212 0.538 8.272 4.065 16.099 9.962 21.996 6.421 6.423 15.132 10.031 24.217 10.031s17.795-3.609 24.216-10.031c6.421-6.423 10.033-15.134 10.033-24.217v-272.881c0-15.864 12.857-28.726 28.721-28.726s28.725 12.861 28.725 28.726v189.036c0.033 9.040 3.635 17.704 10.033 24.099 6.421 6.423 15.132 10.031 24.217 10.031s17.795-3.608 24.216-10.031c6.421-6.423 10.028-15.134 10.028-24.217v-356.847c0-59.184-23.508-115.95-65.36-157.801-41.856-41.851-98.617-65.364-157.806-65.364h-75.308c-36.936 0.010-73.287 9.179-105.804 26.695-32.529 17.526-60.198 42.852-80.523 73.707-2.727 4.15-5.461 8.333-8.166 12.498-12.442 19.103-57.787 98.098-136.986 238.879-4.373 7.771-5.542 16.945-3.256 25.567s7.853 16.020 15.503 20.604c7.749 4.649 16.583 7.076 25.545 7.075 2.015 0 4.039-0.123 6.056-0.371 10.981-1.346 21.209-6.336 29.039-14.15l61.701-61.7c5.496-5.496 12.842-8.416 20.318-8.416 3.7 0 7.432 0.716 10.985 2.188 10.734 4.443 17.732 14.92 17.732 26.535v314.865c0 9.083 3.608 17.794 10.031 24.217s15.134 10.031 24.217 10.031c9.084 0 17.795-3.609 24.216-10.031 6.426-6.423 10.033-15.134 10.033-24.217v-272.881c0-15.864 12.861-28.726 28.725-28.726s28.721 12.861 28.721 28.726v356.844c0 4.498 0.887 8.951 2.606 13.106 1.724 4.155 4.245 7.931 7.427 11.111 3.177 3.18 6.955 5.703 11.11 7.424s8.607 2.607 13.107 2.607zM634.746 579.292v0zM634.736 578.352v0zM543.040 903.094c-12.969 0-25.619-2.516-37.599-7.479-11.995-4.97-22.723-12.141-31.89-21.315-9.134-9.128-16.301-19.847-21.27-31.827-3.664-8.857-5.991-18.040-6.965-27.434-9.039 2.695-18.523 4.091-28.221 4.091-26.243 0-50.915-10.22-69.472-28.777-18.556-18.555-28.776-43.227-28.776-69.472v-229.699l-1.482 1.482c-17.895 17.858-41.499 29.355-66.51 32.42-4.557 0.56-9.222 0.846-13.84 0.846-20.589 0.001-40.809-5.599-58.47-16.194-22.053-13.216-37.845-34.205-44.441-59.085-6.595-24.877-3.277-50.928 9.344-73.355 118.917-211.382 134.133-234.744 139.133-242.421l8.305-12.71c26.109-39.635 61.938-72.431 103.655-94.908 41.698-22.462 88.774-34.34 136.144-34.353h75.324c76.701 0 148.815 29.87 203.058 84.107 54.238 54.238 84.107 126.352 84.107 203.059v356.847c0 26.24-10.217 50.911-28.768 69.467-18.554 18.559-43.228 28.782-69.476 28.782-9.696 0-19.178-1.395-28.215-4.090-2.294 22.386-12.124 43.139-28.255 59.273-18.555 18.559-43.229 28.781-69.476 28.781-9.698 0-19.181-1.396-28.221-4.092-0.973 9.39-3.296 18.561-6.941 27.374-4.992 12.037-12.159 22.756-21.326 31.918-9.139 9.146-19.866 16.316-31.855 21.283-11.986 4.964-24.636 7.481-37.604 7.481v0z" />
<glyph unicode="&#xe90c;" glyph-name="highlighter" d="M512-10.671c-252.906 0-458.667 205.75-458.667 458.667 0 252.906 205.76 458.667 458.667 458.667 252.917 0 458.667-205.76 458.667-458.667 0-252.917-205.75-458.667-458.667-458.667zM512 842.663c-217.625 0-394.667-177.042-394.667-394.667s177.042-394.667 394.667-394.667 394.667 177.042 394.667 394.667-177.042 394.667-394.667 394.667zM714.667 63.996h-64v256c0 29.417-23.917 53.333-53.333 53.333h-170.667c-29.406 0-53.333-23.917-53.333-53.333v-256h-64v256c0 64.688 52.635 117.333 117.333 117.333h170.667c64.688 0 117.333-52.646 117.333-117.333v-256zM426.667 405.333v170.667l170.667 85.333v-256h-170.667zM629.333 373.329h-234.667v222.448l234.667 117.333v-339.781zM458.667 437.329h106.667v172.219l-106.667-53.333v-118.885z" />
<glyph unicode="&#xe90d;" glyph-name="left" d="M640 160.006c-8.156 0-16.323 3.104-22.563 9.312l-256 254.583c-6.021 5.99-9.417 14.125-9.437 22.615-0.021 8.479 3.323 16.635 9.312 22.646l256 257.406c12.469 12.521 32.729 12.573 45.25 0.125 12.531-12.458 12.594-32.719 0.125-45.25l-233.437-234.719 233.312-232.031c12.531-12.458 12.594-32.729 0.125-45.25-6.25-6.292-14.469-9.437-22.688-9.437z" />
<glyph unicode="&#xe90e;" glyph-name="minimize-1" d="M576 799.996c17.667 0 32-14.323 32-32v-224h224c17.667 0 32-14.323 32-32s-14.333-32-32-32h-256c-17.667 0-32 14.323-32 32v256c0 17.677 14.333 32 32 32zM192 415.996h256c17.677 0 32-14.333 32-32v-256c0-17.667-14.323-32-32-32s-32 14.333-32 32v224h-224c-17.677 0-32 14.333-32 32s14.323 32 32 32zM896 863.996c8.188 0 16.375-3.125 22.625-9.375 12.5-12.49 12.5-32.76 0-45.25l-320-320c-12.5-12.5-32.75-12.5-45.25 0-12.5 12.49-12.5 32.76 0 45.25l320 320c6.25 6.25 14.437 9.375 22.625 9.375zM448 415.996c8.188 0 16.375-3.125 22.625-9.375 12.5-12.5 12.5-32.75 0-45.25l-320-320c-12.5-12.5-32.75-12.5-45.25 0s-12.5 32.75 0 45.25l320 320c6.25 6.25 14.437 9.375 22.625 9.375z" />
<glyph unicode="&#xe90f;" glyph-name="more" d="M512 31.996c-64.698 0-117.333 52.646-117.333 117.333s52.635 117.333 117.333 117.333c64.688 0 117.333-52.646 117.333-117.333s-52.646-117.333-117.333-117.333zM512 202.663c-29.406 0-53.333-23.917-53.333-53.333s23.927-53.333 53.333-53.333c29.417 0 53.333 23.917 53.333 53.333s-23.917 53.333-53.333 53.333zM512 629.329c-64.698 0-117.333 52.635-117.333 117.333s52.635 117.333 117.333 117.333c64.688 0 117.333-52.635 117.333-117.333s-52.646-117.333-117.333-117.333zM512 799.996c-29.406 0-53.333-23.927-53.333-53.333s23.927-53.333 53.333-53.333c29.417 0 53.333 23.927 53.333 53.333s-23.917 53.333-53.333 53.333zM512 330.663c-64.698 0-117.333 52.646-117.333 117.333 0 64.698 52.635 117.333 117.333 117.333 64.688 0 117.333-52.635 117.333-117.333 0-64.688-52.646-117.333-117.333-117.333zM512 501.329c-29.406 0-53.333-23.927-53.333-53.333 0-29.417 23.927-53.333 53.333-53.333 29.417 0 53.333 23.917 53.333 53.333 0 29.406-23.917 53.333-53.333 53.333z" />
<glyph unicode="&#xe910;" glyph-name="more-circle-2" d="M53.329 448c0 252.906 205.75 458.667 458.667 458.667 252.906 0 458.667-205.76 458.667-458.667 0-252.917-205.76-458.667-458.667-458.667-252.917 0-458.667 205.75-458.667 458.667zM906.663 448c0 217.625-177.042 394.667-394.667 394.667s-394.667-177.042-394.667-394.667 177.042-394.667 394.667-394.667 394.667 177.042 394.667 394.667zM469.329 277.104c0 23.563 19.104 42.854 42.667 42.854s42.667-18.917 42.667-42.479v-0.375c0-23.563-19.104-42.667-42.667-42.667s-42.667 19.104-42.667 42.667zM469.329 447.812c0 23.563 19.104 42.854 42.667 42.854s42.667-18.917 42.667-42.479v-0.375c0-23.563-19.104-42.667-42.667-42.667s-42.667 19.104-42.667 42.667zM469.329 618.521c0 23.563 19.104 42.854 42.667 42.854s42.667-18.917 42.667-42.479v-0.375c0-23.563-19.104-42.667-42.667-42.667s-42.667 19.104-42.667 42.667z" />
<glyph unicode="&#xe911;" glyph-name="more-square-2" d="M640-10.671h-256c-231.771 0-330.667 98.896-330.667 330.667v256c0 231.771 98.896 330.667 330.667 330.667h256c231.771 0 330.667-98.896 330.667-330.667v-256c0-231.771-98.896-330.667-330.667-330.667zM384 842.663c-196.885 0-266.667-69.781-266.667-266.667v-256c0-196.875 69.781-266.667 266.667-266.667h256c196.875 0 266.667 69.792 266.667 266.667v256c0 196.885-69.792 266.667-266.667 266.667h-256zM512 576.038c-23.563 0-42.667 18.917-42.667 42.479v0.375c0 23.563 19.104 42.667 42.667 42.667s42.667-19.104 42.667-42.667-19.104-42.854-42.667-42.854zM512 405.329c-23.563 0-42.667 18.917-42.667 42.479v0.385c0 23.563 19.104 42.667 42.667 42.667s42.667-19.104 42.667-42.667c0-23.573-19.104-42.865-42.667-42.865zM512 234.621c-23.563 0-42.667 18.917-42.667 42.479v0.375c0 23.563 19.104 42.667 42.667 42.667s42.667-19.104 42.667-42.667-19.104-42.854-42.667-42.854z" />
<glyph unicode="&#xe912;" glyph-name="mouse-3" d="M542.146 23.788c-11.927 0-23.031 6.688-28.531 17.542l-371.5 733.542c-6.25 12.344-3.854 27.302 5.927 37.083 9.771 9.781 24.698 12.208 37.083 5.927l733.542-371.5c12.167-6.167 19.083-19.365 17.25-32.885-1.854-13.521-12.063-24.375-25.437-27.042l-280.792-56.146-56.146-280.792c-2.667-13.375-13.521-23.583-27.042-25.437-1.458-0.188-2.917-0.292-4.354-0.292zM243.344 716.652l285.583-563.885 42.198 211c2.521 12.667 12.437 22.583 25.104 25.104l211 42.198-563.885 285.583z" />
<glyph unicode="&#xe913;" glyph-name="person-blur-high" d="M509.755 537.827c-68.214 0-123.51-55.299-123.51-123.51s55.296-123.51 123.51-123.51c68.211 0 123.507 55.299 123.507 123.51s-55.296 123.51-123.507 123.51zM435.65 414.317c0 40.926 33.176 74.105 74.105 74.105 40.926 0 74.102-33.179 74.102-74.105s-33.176-74.105-74.102-74.105c-40.93 0-74.105 33.179-74.105 74.105zM410.946 241.403c-32.755 0-64.168-13.012-87.333-36.174-23.162-23.165-36.174-54.579-36.174-87.336v-49.401c0-13.642 11.060-24.704 24.701-24.704s24.704 11.062 24.704 24.704v49.401c0 19.655 7.805 38.504 21.703 52.403s32.748 21.703 52.399 21.703h197.615c19.655 0 38.504-7.805 52.399-21.703 13.898-13.898 21.706-32.748 21.706-52.403v-49.401c0-13.642 11.058-24.704 24.701-24.704 13.645 0 24.704 11.062 24.704 24.704v49.401c0 32.758-13.012 64.172-36.177 87.336-23.161 23.161-54.575 36.174-87.333 36.174h-197.615zM197.614 335.722c0 24.701 20.211 44.911 44.912 44.911s44.912-20.211 44.912-44.911c0-24.704-20.211-44.915-44.912-44.915s-44.912 20.211-44.912 44.915zM197.614 515.37c0 24.701 20.211 44.911 44.912 44.911s44.912-20.211 44.912-44.911-20.211-44.911-44.912-44.911c-24.702 0-44.912 20.211-44.912 44.911zM85.333 515.37c0 12.574 9.881 22.457 22.456 22.457s22.456-9.883 22.456-22.457c0-12.574-9.881-22.457-22.456-22.457s-22.456 9.883-22.456 22.457zM197.614 695.020c0 24.702 20.211 44.912 44.912 44.912s44.912-20.211 44.912-44.912c0-24.702-20.211-44.913-44.912-44.913s-44.912 20.211-44.912 44.913zM938.667 515.37c0-12.574-9.88-22.457-22.454-22.457-12.578 0-22.457 9.883-22.457 22.457s9.88 22.457 22.457 22.457c12.574 0 22.454-9.883 22.454-22.457zM646.739 695.020c0-24.702-20.211-44.913-44.915-44.913-24.701 0-44.911 20.211-44.911 44.913s20.211 44.912 44.911 44.912c24.704 0 44.915-20.211 44.915-44.912zM624.282 829.756c0-12.576-9.883-22.456-22.457-22.456s-22.454 9.881-22.454 22.456c0 12.575 9.88 22.456 22.454 22.456s22.457-9.881 22.457-22.456zM85.333 335.722c0 12.574 9.881 22.454 22.456 22.454s22.456-9.88 22.456-22.454c0-12.578-9.881-22.457-22.456-22.457s-22.456 9.88-22.456 22.457zM444.634 829.756c0-12.576-9.883-22.456-22.457-22.456s-22.457 9.881-22.457 22.456c0 12.575 9.883 22.456 22.457 22.456s22.457-9.881 22.457-22.456zM467.087 695.020c0-24.702-20.211-44.913-44.911-44.913-24.704 0-44.911 20.211-44.911 44.913s20.207 44.912 44.911 44.912c24.701 0 44.911-20.211 44.911-44.912zM736.561 335.722c0 24.701 20.211 44.911 44.915 44.911 24.701 0 44.911-20.211 44.911-44.911 0-24.704-20.211-44.915-44.911-44.915-24.704 0-44.915 20.211-44.915 44.915zM736.561 515.37c0 24.701 20.211 44.911 44.915 44.911 24.701 0 44.911-20.211 44.911-44.911s-20.211-44.911-44.911-44.911c-24.704 0-44.915 20.211-44.915 44.911zM736.561 695.020c0 24.702 20.211 44.912 44.915 44.912 24.701 0 44.911-20.211 44.911-44.912s-20.211-44.913-44.911-44.913c-24.704 0-44.915 20.211-44.915 44.913zM893.755 335.722c0 12.574 9.88 22.454 22.457 22.454 12.574 0 22.454-9.88 22.454-22.454 0-12.578-9.88-22.457-22.454-22.457-12.578 0-22.457 9.88-22.457 22.457z" />
<glyph unicode="&#xe914;" glyph-name="person-blur-low" d="M509.755 537.827c-68.214 0-123.51-55.299-123.51-123.51s55.296-123.51 123.51-123.51c68.211 0 123.507 55.299 123.507 123.51s-55.296 123.51-123.507 123.51zM435.65 414.317c0 40.926 33.176 74.105 74.105 74.105 40.926 0 74.102-33.179 74.102-74.105s-33.176-74.105-74.102-74.105c-40.93 0-74.105 33.179-74.105 74.105zM410.946 241.403c-32.755 0-64.168-13.012-87.333-36.174-23.162-23.165-36.174-54.579-36.174-87.337v-49.401c0-13.642 11.060-24.704 24.701-24.704s24.704 11.062 24.704 24.704v49.401c0 19.655 7.805 38.504 21.703 52.403s32.748 21.703 52.399 21.703h197.615c19.655 0 38.504-7.805 52.399-21.703 13.898-13.898 21.706-32.748 21.706-52.403v-49.401c0-13.642 11.058-24.704 24.701-24.704 13.646 0 24.704 11.062 24.704 24.704v49.401c0 32.758-13.012 64.172-36.177 87.337-23.161 23.161-54.575 36.174-87.333 36.174h-197.615zM220.071 335.721c0 12.35 10.105 22.455 22.455 22.455s22.455-10.105 22.455-22.455c0-12.352-10.105-22.457-22.455-22.457s-22.455 10.105-22.455 22.457zM220.071 515.37c0 12.35 10.105 22.455 22.455 22.455s22.455-10.105 22.455-22.455-10.105-22.455-22.455-22.455-22.455 10.105-22.455 22.455zM85.333 515.37c0 12.574 9.881 22.457 22.456 22.457s22.456-9.883 22.456-22.457c0-12.574-9.881-22.457-22.456-22.457s-22.456 9.883-22.456 22.457zM220.071 695.019c0 12.35 10.105 22.455 22.455 22.455s22.455-10.105 22.455-22.455c0-12.351-10.105-22.456-22.455-22.456s-22.455 10.105-22.455 22.456zM938.667 515.37c0-12.574-9.88-22.457-22.454-22.457-12.578 0-22.457 9.883-22.457 22.457s9.88 22.457 22.457 22.457c12.574 0 22.454-9.883 22.454-22.457zM624.282 695.019c0-12.35-10.105-22.455-22.456-22.455s-22.455 10.105-22.455 22.455 10.105 22.455 22.455 22.455c12.351 0 22.456-10.105 22.456-22.455zM624.282 829.756c0-12.576-9.883-22.456-22.457-22.456s-22.454 9.881-22.454 22.456c0 12.575 9.88 22.456 22.454 22.456s22.457-9.881 22.457-22.456zM85.333 335.722c0 12.574 9.881 22.454 22.456 22.454s22.456-9.88 22.456-22.454c0-12.578-9.881-22.457-22.456-22.457s-22.456 9.88-22.456 22.457zM444.634 829.756c0-12.576-9.883-22.456-22.457-22.456s-22.457 9.881-22.457 22.456c0 12.575 9.883 22.456 22.457 22.456s22.457-9.881 22.457-22.456zM444.632 695.019c0-12.351-10.105-22.456-22.455-22.456-12.352 0-22.455 10.105-22.455 22.456s10.104 22.456 22.455 22.456c12.35 0 22.455-10.105 22.455-22.456zM759.019 335.721c0 12.35 10.105 22.455 22.456 22.455s22.455-10.105 22.455-22.455c0-12.351-10.105-22.456-22.455-22.456s-22.456 10.105-22.456 22.456zM759.019 515.37c0 12.35 10.105 22.455 22.456 22.455s22.455-10.105 22.455-22.455-10.105-22.455-22.455-22.455c-12.351 0-22.456 10.105-22.456 22.455zM759.019 695.019c0 12.35 10.105 22.455 22.456 22.455s22.455-10.105 22.455-22.455-10.105-22.455-22.455-22.455c-12.351 0-22.456 10.105-22.456 22.455zM893.756 335.722c0 12.574 9.88 22.454 22.457 22.454 12.574 0 22.454-9.88 22.454-22.454 0-12.578-9.88-22.457-22.454-22.457-12.578 0-22.457 9.88-22.457 22.457z" />
<glyph unicode="&#xe915;" glyph-name="pin" d="M512-10.671c-17.677 0-32 14.333-32 32v181.333h-266.667c-17.677 0-32 14.333-32 32v75.104c0.010 21.875 6.104 43.229 17.625 61.792 11.5 18.563 27.927 33.521 47.5 43.25l75.74 38.281c9.094 4.521 16.563 11.323 21.792 19.76 5.24 8.437 8 18.146 8.010 28.073v171.073h-10.667c-31.323 0-60.792 12.208-82.969 34.365-22.156 22.167-34.365 51.625-34.365 82.969s12.208 60.812 34.365 82.969c22.177 22.167 51.635 34.365 82.969 34.365h341.333c31.333 0 60.792-12.208 82.958-34.365 22.167-22.167 34.375-51.625 34.375-82.969 0-31.333-12.208-60.792-34.375-82.958s-51.625-34.375-82.958-34.375h-10.667v-171.094c0-9.917 2.771-19.604 8-28.042 5.229-8.448 12.708-15.24 21.604-19.667l76.146-38.49c19.354-9.625 35.771-24.583 47.292-43.146 11.5-18.5 17.604-39.854 17.625-61.75v-75.146c0-17.667-14.333-32-32-32h-266.667v-181.333c0-17.667-14.323-32-32-32zM245.333 266.663h533.333v43.104c-0.021 9.917-2.771 19.625-8 28.021-5.25 8.479-12.708 15.292-21.604 19.708l-76.146 38.479c-19.396 9.646-35.812 24.604-47.312 43.167-11.5 18.542-17.604 39.906-17.604 61.76v203.094c0 17.677 14.333 32 32 32h42.667c14.021 0 27.771 5.698 37.708 15.625 9.937 9.937 15.625 23.677 15.625 37.708 0 14.042-5.688 27.781-15.625 37.719-9.937 9.927-23.667 15.615-37.708 15.615h-341.333c-14.24 0-27.646-5.552-37.719-15.625-10.073-10.063-15.615-23.458-15.615-37.708 0-14.042 5.688-27.781 15.615-37.708 10.083-10.073 23.479-15.625 37.719-15.625h42.667c17.677 0 32-14.323 32-32v-203.094c-0.010-21.865-6.104-43.219-17.615-61.781-11.521-18.563-27.948-33.521-47.51-43.25l-75.74-38.292c-9.094-4.521-16.563-11.312-21.792-19.75-5.24-8.437-8-18.146-8.010-28.083v-43.083z" />
<glyph unicode="&#xe916;" glyph-name="question-circle" d="M538.854 350.725c-13.083 0-25.354 8.083-30.083 21.083-6.031 16.604 2.552 34.958 19.167 41 14.25 5.167 26.958 13.271 37.792 24.104 9.958 9.667 17.792 22.698 21.854 36.125 4.792 13.875 6.167 29.073 4.375 45.25-2.063 13.698-7.521 28-16.042 41.292-8 12.167-18.875 22.521-31.25 29.625-12.604 7.25-26.958 11.604-42.667 12.937-14.458 0.927-29.583-1.375-42.875-6.74-13.406-5.302-25.271-13.635-36.5-25.552-12.115-12.865-32.385-13.469-45.229-1.354-12.865 12.115-13.479 32.365-1.354 45.229 17.563 18.656 37.521 32.479 59.312 41.104 21.917 8.865 46.688 12.719 71.448 11.125 25.74-2.177 48.99-9.323 69.76-21.26 21-12.063 39.333-29.448 53.021-50.26 13.646-21.25 22.25-43.99 25.833-67.885 3-26.823 0.521-51.75-7-73.292-6.792-22.594-20.354-45.052-37.792-61.948-17.146-17.146-37.729-30.271-60.854-38.667-3.604-1.312-7.292-1.917-10.917-1.917zM512 31.996c-229.385 0-416 186.625-416 416 0 229.385 186.615 416 416 416 229.375 0 416-186.615 416-416 0-229.375-186.625-416-416-416zM512 799.996c-194.094 0-352-157.906-352-352 0-194.083 157.906-352 352-352 194.083 0 352 157.917 352 352 0 194.094-157.917 352-352 352zM512.427 223.996c-17.677 0-32.219 14.333-32.219 32s14.115 32 31.792 32h0.427c17.677 0 31.99-14.333 31.99-32s-14.312-32-31.99-32z" />
<glyph unicode="&#xe917;" glyph-name="rate" d="M753.646-7.066c-22.688 0-51.812 7.104-88.104 28.563l-127.604 75.521c-12.958 7.688-38.781 7.625-52.094-0.125l-127.354-75.396c-75.365-44.708-119.979-27.042-139.854-12.5-19.865 14.521-50.229 51.604-30.5 136.854l30.292 130.979c3.146 14.063-3.458 37.208-13.635 47.396l-105.812 105.812c-52.719 52.719-48.583 98.031-41.427 120.354 7.146 22.302 30.115 61.542 103.594 73.781l136.115 22.615c12.531 2.135 31.094 15.927 36.667 27.312l75.208 150.427c34.448 68.521 79.125 78.802 102.812 78.802h0.167c23.594-0.042 68.24-10.354 102.323-78.812l75.104-150.177c5.792-11.854 24.167-25.375 37.229-27.552l136.083-22.615c73.75-12.281 96.708-51.646 103.833-74.021 7.125-22.333 11.167-67.646-41.75-120.198l-105.729-105.729c-10.188-10.188-16.792-33.333-13.583-47.604l30.25-130.771c19.688-85.479-10.521-122.521-30.292-136.979-10.312-7.542-27.312-15.937-51.937-15.937zM512.219 166.809c20.937 0 41.781-4.917 58.323-14.708l127.583-75.521c37.396-22.104 60.896-22.5 69.646-16.063 8.729 6.375 15.458 28.771 5.729 70.937l-30.292 130.958c-7.979 35.646 5.271 81.583 30.75 107.063l105.812 105.812c20.771 20.635 30.437 41.323 25.937 55.427-4.5 14.177-24.458 25.521-53.354 30.333l-136.104 22.615c-33.271 5.552-69.417 32.333-84.083 62.302l-74.979 149.937c0 0.021-0.021 0.042-0.021 0.063-13.5 27.125-30.385 43.333-45.177 43.365h-0.042c-14.865 0-31.906-16.25-45.594-43.49l-75.063-150.125c-14.531-29.656-50.437-56.427-83.417-62.042l-136.219-22.625c-28.76-4.792-48.635-16.083-53.156-30.198-4.531-14.135 5.083-34.906 25.729-55.563l105.812-105.812c25.49-25.479 38.719-71.417 30.792-106.854l-30.344-131.188c-9.708-41.958-2.885-64.354 5.917-70.771 8.844-6.479 32.312-6.167 69.448 15.896l127.604 75.542c16.875 9.812 37.865 14.708 58.76 14.708zM579.351 321.079c-6.326 0-14.447 1.981-24.566 7.964l-35.579 21.057c-3.613 2.143-10.813 2.126-14.525-0.035l-35.51-21.022c-21.014-12.466-33.453-7.54-38.995-3.485-5.539 4.049-14.005 14.389-8.504 38.159l8.446 36.52c0.877 3.921-0.964 10.375-3.802 13.215l-29.503 29.503c-14.699 14.699-13.546 27.334-11.551 33.558 1.992 6.218 8.397 17.159 28.885 20.572l37.952 6.306c3.494 0.595 8.67 4.441 10.224 7.615l20.97 41.943c9.605 19.105 22.062 21.972 28.667 21.972h0.046c6.579-0.012 19.027-2.887 28.53-21.975l20.941-41.873c1.615-3.305 6.738-7.075 10.38-7.682l37.944-6.306c20.563-3.424 26.965-14.4 28.951-20.639 1.987-6.227 3.114-18.861-11.641-33.514l-29.48-29.48c-2.841-2.841-4.682-9.294-3.787-13.273l8.435-36.462c5.489-23.834-2.933-34.162-8.446-38.193-2.875-2.103-7.615-4.444-14.482-4.444zM146.551 345.457c-11.854 3.852-44.186-17.451-40.335-29.305s42.531-10.084 49.857 0c4.528 6.232-2.196 26.924-9.522 29.305zM747.382 745.764c11.854 3.852 25.49 40.090 15.406 47.417s-40.335-16.841-40.335-29.305c0-7.703 17.602-20.492 24.928-18.112zM301.547 763.876c1.567 12.365-30.251 36.631-40.335 29.305s3.162-45.086 15.406-47.417c7.568-1.44 23.96 10.47 24.928 18.112zM496.594 68.75c-7.326-10.084 2.942-47.417 15.406-47.417s22.733 37.333 15.406 47.417c-4.528 6.232-26.285 6.232-30.812 0zM867.927 316.152c6-10.925 46.005-11.854 49.857 0s-29.059 34.616-40.335 29.305c-6.969-3.283-13.23-22.553-9.522-29.305z" />
<glyph unicode="&#xe918;" glyph-name="reactions" d="M512-10.671c-252.906 0-458.667 205.75-458.667 458.667 0 252.906 205.76 458.667 458.667 458.667 252.917 0 458.667-205.76 458.667-458.667 0-252.917-205.75-458.667-458.667-458.667zM512 842.663c-217.625 0-394.667-177.042-394.667-394.667s177.042-394.667 394.667-394.667 394.667 177.042 394.667 394.667-177.042 394.667-394.667 394.667zM384 501.329c-41.167 0-74.667 33.5-74.667 74.667s33.5 74.667 74.667 74.667 74.667-33.5 74.667-74.667-33.5-74.667-74.667-74.667zM384 586.663c-5.885 0-10.667-4.781-10.667-10.667s4.781-10.667 10.667-10.667 10.667 4.781 10.667 10.667-4.781 10.667-10.667 10.667zM640 501.329c-41.167 0-74.667 33.5-74.667 74.667s33.5 74.667 74.667 74.667 74.667-33.5 74.667-74.667-33.5-74.667-74.667-74.667zM640 586.663c-5.875 0-10.667-4.781-10.667-10.667s4.792-10.667 10.667-10.667 10.667 4.781 10.667 10.667-4.792 10.667-10.667 10.667zM512 245.329c-74.75 0-146.052 35.479-195.635 97.312-11.052 13.792-8.833 33.937 4.948 44.979 13.802 11.083 33.948 8.812 44.99-4.937 37.365-46.625 90.469-73.354 145.698-73.354s108.333 26.729 145.708 73.354c11.021 13.771 31.146 16.042 44.979 4.937 13.792-11.042 16-31.188 4.937-44.979-49.563-61.833-120.875-97.312-195.625-97.312z" />
<glyph unicode="&#xe919;" glyph-name="right" d="M384 735.994c8.156 0 16.323-3.104 22.563-9.312l256-254.583c6.021-5.99 9.417-14.125 9.437-22.615 0.021-8.479-3.323-16.635-9.312-22.646l-256-257.406c-12.469-12.521-32.729-12.573-45.25-0.125-12.531 12.458-12.594 32.719-0.125 45.25l233.437 234.719-233.312 232.031c-12.531 12.458-12.594 32.729-0.125 45.25 6.25 6.292 14.469 9.437 22.688 9.437z" />
<glyph unicode="&#xe91a;" glyph-name="screen-share" d="M768 159.996h-85.333c-17.667 0-32 14.333-32 32s14.333 32 32 32h85.333c76.458 0 138.667 62.208 138.667 138.667v170.667c0 76.458-62.208 138.667-138.667 138.667h-512c-76.458 0-138.667-62.208-138.667-138.667v-172.146c0-75.646 61.542-137.188 137.177-137.188h86.823c17.677 0 32-14.333 32-32s-14.323-32-32-32h-86.823c-110.927 0-201.177 90.25-201.177 201.188v172.146c0 111.75 90.917 202.667 202.667 202.667h512c111.75 0 202.667-90.917 202.667-202.667v-170.667c0-111.75-90.917-202.667-202.667-202.667zM682.667 330.663c-8.188 0-16.375 3.125-22.625 9.375l-148.042 148.042-148.042-148.042c-12.5-12.5-32.75-12.5-45.25 0s-12.5 32.75 0 45.25l170.667 170.667c12.5 12.5 32.75 12.5 45.25 0l170.667-170.667c12.5-12.5 12.5-32.75 0-45.25-6.25-6.25-14.437-9.375-22.625-9.375zM512 74.663c-17.677 0-32 14.333-32 32v426.667c0 17.677 14.323 32 32 32s32-14.323 32-32v-426.667c0-17.667-14.323-32-32-32z" />
<glyph unicode="&#xe91b;" glyph-name="shape-arrow" d="M170.667 74.663c-8.198 0-16.396 3.125-22.646 9.396-12.49 12.5-12.469 32.771 0.031 45.25l682.677 681.667c12.5 12.479 32.75 12.49 45.25-0.031 12.479-12.51 12.479-32.771-0.042-45.26l-682.656-681.667c-6.25-6.229-14.437-9.354-22.615-9.354zM853.333 501.329c-17.625 0-31.937 14.24-32 31.875l-0.875 224-223.125-0.875c-17.625 0-31.937 14.24-32 31.875-0.063 17.677 14.208 32.052 31.875 32.125l255.125 1c8.437 0 16.542-3.333 22.542-9.281 6.021-5.979 9.417-14.104 9.458-22.594l1-256c0.063-17.677-14.208-32.052-31.875-32.125h-0.125z" />
<glyph unicode="&#xe91c;" glyph-name="shape-arrow-dash" d="M170.667 74.663c-8.188 0-16.375 3.125-22.625 9.375-12.5 12.5-12.5 32.75 0 45.25l45.25 45.25c12.5 12.5 32.75 12.5 45.25 0s12.5-32.75 0-45.25l-45.25-45.25c-6.25-6.25-14.437-9.375-22.625-9.375zM300.51 204.517c-8.188 0-16.375 3.125-22.625 9.375-12.5 12.5-12.5 32.75 0 45.25l84.594 84.583c12.5 12.5 32.75 12.5 45.25 0s12.5-32.75 0-45.25l-84.594-84.583c-6.25-6.25-14.437-9.375-22.625-9.375zM469.698 373.704c-8.188 0-16.375 3.125-22.625 9.375-12.5 12.5-12.5 32.75 0 45.25l84.594 84.583c12.5 12.5 32.75 12.5 45.25 0s12.5-32.76 0-45.25l-84.594-84.583c-6.25-6.25-14.437-9.375-22.625-9.375zM638.896 542.882c-8.188 0-16.375 3.125-22.625 9.375-12.5 12.49-12.5 32.75 0 45.25l84.583 84.594c12.5 12.5 32.75 12.5 45.25 0 12.5-12.49 12.5-32.75 0-45.25l-84.583-84.594c-6.25-6.25-14.437-9.375-22.625-9.375zM808.083 712.079c-8.188 0-16.375 3.125-22.625 9.375-12.5 12.49-12.5 32.76 0 45.25l45.25 45.25c12.5 12.5 32.75 12.5 45.25 0 12.5-12.49 12.5-32.76 0-45.25l-45.25-45.25c-6.25-6.25-14.437-9.375-22.625-9.375zM853.333 586.663c-17.667 0-32 14.323-32 32v138.667h-138.667c-17.667 0-32 14.323-32 32s14.333 32 32 32h170.667c17.667 0 32-14.323 32-32v-170.667c0-17.677-14.333-32-32-32z" />
<glyph unicode="&#xe91d;" glyph-name="shape-border" d="M192 213.333h640c11.782 0 21.333-9.551 21.333-21.333v0c0-11.782-9.551-21.333-21.333-21.333h-640c-11.782 0-21.333 9.551-21.333 21.333v0c0 11.782 9.551 21.333 21.333 21.333zM192 725.333h640c11.782 0 21.333-9.551 21.333-21.333v-128c0-11.782-9.551-21.333-21.333-21.333h-640c-11.782 0-21.333 9.551-21.333 21.333v128c0 11.782 9.551 21.333 21.333 21.333zM192 512h640c11.782 0 21.333-9.551 21.333-21.333v-85.333c0-11.782-9.551-21.333-21.333-21.333h-640c-11.782 0-21.333 9.551-21.333 21.333v85.333c0 11.782 9.551 21.333 21.333 21.333zM192 341.333h640c11.782 0 21.333-9.551 21.333-21.333v-42.667c0-11.782-9.551-21.333-21.333-21.333h-640c-11.782 0-21.333 9.551-21.333 21.333v42.667c0 11.782 9.551 21.333 21.333 21.333z" />
<glyph unicode="&#xe91e;" glyph-name="shape-brush" d="M171.958 73.184c-14.854 0-28.177 10.396-31.302 25.5-13.458 64.979-10.135 122.708 9.875 171.563 25.385 62 80.24 106.896 139.729 114.333 49.729 6.167 95.896-12.417 136.688-28.875l5.312-2.146c29.927-12.021 64.74-25.146 99.302-28.896 33.771-3.625 64.563 2.479 86.729 17.25 22.75 15.208 36.437 41.812 33.25 64.708-3.5 25.219-24.625 47.76-47 71.615l-9.583 10.292c-49.208 53.51-78.021 105.792-88.083 159.844-13.24 70.99 10.583 142.469 60.688 182.104 40.479 32.021 98.5 44 159.104 32.937 50.917-9.312 97.688-32.729 138.958-53.396 15.792-7.917 22.188-27.135 14.271-42.937-7.896-15.823-27.104-22.208-42.937-14.292-39.271 19.667-79.875 40-121.792 47.667-42.583 7.812-81.896 0.417-107.896-20.177-31.229-24.688-46.292-72.99-37.479-120.188 7.792-41.896 31.437-83.844 72.271-128.229l9.167-9.854c26.896-28.698 57.396-61.229 63.688-106.573 6.542-47.021-18-97.958-61.083-126.729-34.604-23.104-80.458-32.937-129.167-27.667-42.656 4.625-82.375 19.521-116.26 33.146l-5.385 2.167c-36.865 14.833-71.635 28.854-104.812 24.729-36.948-4.625-71.667-34.104-88.448-75.083-15.094-36.854-17.26-82.042-6.437-134.333 3.583-17.292-7.542-34.229-24.844-37.812-2.188-0.458-4.375-0.667-6.521-0.667z" />
<glyph unicode="&#xe91f;" glyph-name="shape-brush-dash" d="M171.958 73.184c-14.854 0-28.177 10.396-31.302 25.521-2.385 11.521-4.271 23.063-5.615 34.292-2.083 17.542 10.458 33.458 28 35.542 17.521 2.375 33.458-10.437 35.563-28 1.146-9.688 2.75-19.354 4.719-28.875 3.583-17.292-7.542-34.229-24.844-37.812-2.188-0.458-4.375-0.667-6.521-0.667zM174.031 208.85c-3.063 0-6.177 0.437-9.26 1.375-16.917 5.104-26.49 22.958-21.385 39.875 2.052 6.812 4.437 13.542 7.156 20.167 6.677 16.312 15.563 31.771 26.375 45.896 10.75 14.042 30.854 16.708 44.865 5.937 14.031-10.729 16.698-30.812 5.948-44.854-7.375-9.625-13.427-20.146-17.969-31.25-1.937-4.729-3.635-9.542-5.104-14.396-4.177-13.833-16.875-22.75-30.625-22.75zM510.292 263.454c-1.917 0-3.854 0.167-5.802 0.521-20.135 3.688-41 9.563-65.667 18.5-16.615 6.021-25.208 24.354-19.188 40.979 6.021 16.604 24.385 25.229 40.979 19.188 21.24-7.688 38.844-12.688 55.396-15.708 17.385-3.188 28.906-19.854 25.719-37.25-2.833-15.417-16.292-26.229-31.437-26.229zM613.5 271.309c-12.583 0-24.5 7.458-29.604 19.792-6.729 16.333 1.042 35.042 17.375 41.792 6.063 2.5 11.792 5.542 17.021 9.021 7.229 4.833 13.896 11.146 19.271 18.25 10.667 14.083 30.771 16.875 44.833 6.208 14.083-10.667 16.875-30.75 6.208-44.833-9.771-12.917-21.479-23.958-34.771-32.833-8.729-5.833-18.188-10.875-28.146-14.979-4-1.646-8.125-2.417-12.188-2.417zM351.135 316.371c-2.531 0-5.115 0.292-7.688 0.937-17.031 4.208-31.031 5.521-45.25 3.771l-4.104-0.625c-17.271-3.063-33.948 8.729-36.917 26.167-2.969 17.417 8.74 33.958 26.167 36.917 2.188 0.375 4.396 0.708 6.594 1 23.292 2.896 44.083 1.021 68.844-5.104 17.167-4.229 27.635-21.583 23.396-38.729-3.594-14.583-16.667-24.333-31.042-24.333zM674.417 407.6c-11.917 0-23.375 6.688-28.875 18.167-7.104 14.802-19.521 29.26-31.875 42.688-11.979 13.010-11.125 33.25 1.875 45.219 13 11.958 33.25 11.146 45.208-1.865 15.729-17.094 31.771-35.979 42.5-58.365 7.646-15.937 0.917-35.052-15.021-42.698-4.458-2.146-9.167-3.146-13.812-3.146zM571.375 539.611c-10.771 0-21.271 5.427-27.312 15.292-12.927 21.115-22.927 42.615-29.719 63.917-5.365 16.833 3.927 34.833 20.76 40.208 17 5.396 34.854-3.948 40.208-20.771 5.229-16.396 13.083-33.198 23.333-49.937 9.229-15.073 4.5-34.771-10.583-44-5.208-3.188-10.979-4.708-16.688-4.708zM541.167 699.986c-2.729 0-5.521 0.354-8.281 1.094-17.073 4.563-27.219 22.104-22.656 39.177 6.937 25.958 18.563 48.833 34.563 68 11.333 13.552 31.5 15.396 45.063 4.052 13.583-11.323 15.396-31.5 4.063-45.073-9.979-11.958-17.333-26.594-21.854-43.5-3.833-14.302-16.75-23.75-30.896-23.75zM723.333 799.475c-2.063 0-4.146 0.208-6.229 0.615-20.188 3.698-36.104 4.219-52.771 2.26-17.625-1.99-33.458 10.49-35.5 28.042-2.083 17.552 10.479 33.458 28.042 35.521 22.25 2.635 46.333 1.802 69.771-2.5l2.833-0.531c17.354-3.427 28.625-20.25 25.208-37.594-3.021-15.24-16.396-25.812-31.354-25.812zM851.271 749.392c-4.812 0-9.708 1.094-14.312 3.406-9.396 4.698-18.812 9.406-28.333 13.99-15.917 7.677-22.604 26.802-14.937 42.719 7.667 15.948 26.812 22.615 42.729 14.948 9.812-4.729 19.521-9.583 29.208-14.448 15.812-7.917 22.188-27.135 14.271-42.937-5.604-11.198-16.896-17.677-28.625-17.677z" />
<glyph unicode="&#xe920;" glyph-name="shape-circle" d="M512 74.663c-205.854 0-373.333 167.479-373.333 373.333s167.479 373.333 373.333 373.333 373.333-167.479 373.333-373.333-167.479-373.333-373.333-373.333zM512 757.329c-170.563 0-309.333-138.771-309.333-309.333s138.771-309.333 309.333-309.333 309.333 138.771 309.333 309.333-138.771 309.333-309.333 309.333z" />
<glyph unicode="&#xe921;" glyph-name="shape-circle-dash" d="M514.646 74.663h-2.646c-49.344 0-97.281 9.479-142.479 28.188-16.333 6.75-24.094 25.458-17.344 41.792 6.76 16.354 25.458 24.125 41.802 17.333 36.833-15.229 75.906-23.063 116.156-23.312l2.219 0.021c17.677 0 32-14.333 32-32 0-16.417-12.375-29.958-28.312-31.792l-1.396-0.229zM642.917 100.663c-12.563 0-24.458 7.417-29.583 19.729-6.771 16.312 0.958 35.042 17.292 41.833 37.604 15.604 71.312 38.188 100.208 67.125 12.5 12.542 32.792 12.5 45.25 0.042 12.521-12.5 12.521-32.75 0.042-45.25-34.875-34.917-75.563-62.188-120.958-81.042-4-1.667-8.167-2.437-12.25-2.437zM271 174.267c-8.177 0-16.344 3.104-22.594 9.333-34.937 34.833-62.24 75.5-81.146 120.854-6.802 16.312 0.906 35.042 17.219 41.854 16.302 6.771 35.052-0.917 41.844-17.229 15.677-37.583 38.302-71.271 67.271-100.146 12.51-12.479 12.542-32.75 0.063-45.25-6.25-6.271-14.448-9.417-22.656-9.417zM827.437 285.413c-4.063 0-8.229 0.771-12.229 2.437-16.333 6.771-24.083 25.479-17.312 41.812 15.542 37.542 23.437 77.354 23.437 118.333 0 17.677 14.333 32.708 32 32.708s32-13.615 32-31.292v-1.417c0-49.437-9.521-97.479-28.312-142.833-5.104-12.312-17.021-19.75-29.583-19.75zM170.667 415.642c-17.677 0-32.010 13.969-32.010 31.646 0 0.49 0.021 1.677 0.042 2.156-0.031 47.729 9.396 95.542 27.99 140.667 6.729 16.344 25.469 24.135 41.771 17.396 16.344-6.729 24.135-25.427 17.396-41.771-15.385-37.354-23.188-76.969-23.188-117.74 0-17.677-14.333-32.354-32-32.354zM826.917 547.85c-12.521 0-24.417 7.385-29.542 19.656-15.688 37.521-38.396 71.167-67.437 100.010-12.542 12.448-12.625 32.708-0.167 45.25 12.437 12.531 32.729 12.635 45.25 0.167 35.042-34.792 62.437-75.406 81.396-120.719 6.812-16.302-0.875-35.052-17.167-41.875-4.042-1.688-8.229-2.49-12.333-2.49zM270.021 656.746c-8.167 0-16.323 3.104-22.573 9.312-12.521 12.469-12.573 32.729-0.115 45.26 34.802 34.969 75.437 62.323 120.781 81.271 16.312 6.823 35.052-0.875 41.865-17.177 6.823-16.302-0.875-35.052-17.177-41.865-37.563-15.708-71.24-38.375-100.094-67.375-6.26-6.281-14.469-9.427-22.688-9.427zM641.563 731.861c-4.042 0-8.167 0.771-12.146 2.406-37.229 15.302-76.75 23.063-117.417 23.063-17.677 0-32.531 14.323-32.531 32s13.792 32 31.469 32h1.063c49.063 0 96.75-9.375 141.75-27.854 16.333-6.719 24.146-25.417 17.437-41.76-5.083-12.375-17.021-19.854-29.625-19.854z" />
<glyph unicode="&#xe922;" glyph-name="shape-circle-fill" d="M512 789.333h0.001c188.513 0 341.333-152.82 341.333-341.333v-0.001c0-188.513-152.82-341.333-341.333-341.333h-0.001c-188.513 0-341.333 152.82-341.333 341.333v0.001c0 188.513 152.82 341.333 341.333 341.333z" />
<glyph unicode="&#xe923;" glyph-name="shape-ellipse" d="M512 245.329c-209.344 0-373.333 89.021-373.333 202.667s163.99 202.667 373.333 202.667c209.354 0 373.333-89.021 373.333-202.667s-163.979-202.667-373.333-202.667zM512 586.663c-182.292 0-309.333-73.083-309.333-138.667s127.042-138.667 309.333-138.667 309.333 73.083 309.333 138.667-127.042 138.667-309.333 138.667z" />
<glyph unicode="&#xe924;" glyph-name="shape-ellipse-dash" d="M445.25 164.892c-1.573 0-3.156 0.104-4.76 0.354-49.583 7.375-95.958 22.188-137.812 44-15.667 8.167-21.75 27.5-13.583 43.167 8.156 15.667 27.469 21.729 43.167 13.583 35.531-18.521 75.125-31.125 117.667-37.458 17.479-2.604 29.531-18.875 26.927-36.354-2.365-15.896-16.021-27.292-31.604-27.292zM579.375 164.975c-15.563 0-29.208 11.375-31.604 27.25-2.625 17.458 9.417 33.771 26.896 36.396 42.521 6.396 82.083 19.063 117.583 37.625 15.625 8.188 35 2.125 43.188-13.521 8.188-15.667 2.146-35-13.521-43.188-41.812-21.875-88.146-36.75-137.75-44.208-1.604-0.25-3.208-0.354-4.792-0.354zM214.406 290.559c-9.719 0-19.312 4.417-25.604 12.771-32.646 43.458-49.979 93.229-50.146 143.948-0.052 17.677 14.229 32.052 31.896 32.104h0.104c17.625 0 31.948-14.26 32-31.896 0.115-36.823 13.021-73.365 37.312-105.698 10.615-14.146 7.771-34.208-6.365-44.812-5.76-4.333-12.5-6.417-19.198-6.417zM809.958 291.038c-6.667 0-13.375 2.063-19.125 6.354-14.167 10.583-17.063 30.646-6.5 44.792 24.208 32.396 37 69 37 105.812 0 17.677 14.333 32.625 32 32.625s32-13.708 32-31.385v-1.24c0-50.729-17.188-100.563-49.708-144.104-6.292-8.417-15.917-12.854-25.667-12.854zM213.615 540.444c-6.635 0-13.333 2.052-19.063 6.312-14.188 10.542-17.146 30.583-6.604 44.771 27.865 37.51 67.125 70.219 113.531 94.604 15.677 8.25 35.010 2.198 43.208-13.437 8.229-15.646 2.208-34.99-13.437-43.208-37.969-19.958-69.75-46.281-91.927-76.125-6.281-8.448-15.937-12.917-25.708-12.917zM809.25 541.934c-9.688 0-19.271 4.385-25.563 12.719-22.417 29.719-54.396 55.854-92.437 75.604-15.688 8.146-21.812 27.458-13.667 43.146 8.146 15.708 27.521 21.75 43.125 13.667 46.479-24.125 85.917-56.573 114.063-93.854 10.646-14.115 7.833-34.177-6.271-44.823-5.771-4.354-12.542-6.458-19.25-6.458zM443.937 666.902c-15.552 0-29.198 11.354-31.594 27.198-2.656 17.479 9.365 33.792 26.833 36.437 46.875 7.125 96.49 7.25 143.656 0.312 17.5-2.563 29.583-18.823 27.021-36.302-2.563-17.49-18.979-29.615-36.312-27.010-40.958 6.031-84.115 5.906-124.76-0.271-1.625-0.25-3.25-0.365-4.844-0.365z" />
<glyph unicode="&#xe925;" glyph-name="shape-ellipse-fill" d="M853.333 448c0-141.385-152.82-256-341.333-256s-341.333 114.615-341.333 256c0 141.385 152.82 256 341.333 256s341.333-114.615 341.333-256z" />
<glyph unicode="&#xe926;" glyph-name="shape-line" d="M170.667 74.663c-8.188 0-16.375 3.125-22.625 9.375-12.5 12.5-12.5 32.75 0 45.25l682.667 682.667c12.5 12.5 32.75 12.5 45.25 0 12.5-12.49 12.5-32.76 0-45.25l-682.667-682.667c-6.25-6.25-14.437-9.375-22.625-9.375z" />
<glyph unicode="&#xe927;" glyph-name="shape-line-dash" d="M170.667 74.663c-8.188 0-16.375 3.125-22.625 9.375-12.5 12.5-12.5 32.75 0 45.25l45.25 45.25c12.5 12.5 32.75 12.5 45.25 0s12.5-32.75 0-45.25l-45.25-45.25c-6.25-6.25-14.437-9.375-22.625-9.375zM300.51 204.517c-8.188 0-16.375 3.125-22.625 9.375-12.5 12.5-12.5 32.75 0 45.25l84.594 84.583c12.5 12.5 32.75 12.5 45.25 0s12.5-32.75 0-45.25l-84.594-84.583c-6.25-6.25-14.437-9.375-22.625-9.375zM469.698 373.704c-8.188 0-16.375 3.125-22.625 9.375-12.5 12.5-12.5 32.75 0 45.25l84.594 84.583c12.5 12.5 32.75 12.5 45.25 0s12.5-32.76 0-45.25l-84.594-84.583c-6.25-6.25-14.437-9.375-22.625-9.375zM638.896 542.882c-8.188 0-16.375 3.125-22.625 9.375-12.5 12.49-12.5 32.75 0 45.25l84.583 84.594c12.5 12.5 32.75 12.5 45.25 0 12.5-12.49 12.5-32.75 0-45.25l-84.583-84.594c-6.25-6.25-14.437-9.375-22.625-9.375zM808.083 712.079c-8.188 0-16.375 3.125-22.625 9.375-12.5 12.49-12.5 32.76 0 45.25l45.25 45.25c12.5 12.5 32.75 12.5 45.25 0 12.5-12.49 12.5-32.76 0-45.25l-45.25-45.25c-6.25-6.25-14.437-9.375-22.625-9.375z" />
<glyph unicode="&#xe928;" glyph-name="shape-rect" d="M853.333 74.663h-682.667c-17.677 0-32 14.333-32 32v682.667c0 17.677 14.323 32 32 32h682.667c17.667 0 32-14.323 32-32v-682.667c0-17.667-14.333-32-32-32zM202.667 138.663h618.667v618.667h-618.667v-618.667z" />
<glyph unicode="&#xe929;" glyph-name="shape-rect-dash" d="M853.333 74.663h-64c-17.667 0-32 14.333-32 32s14.333 32 32 32h32v32c0 17.667 14.333 32 32 32s32-14.333 32-32v-64c0-17.667-14.333-32-32-32zM678.396 74.663h-110.937c-17.667 0-32 14.333-32 32s14.333 32 32 32h110.937c17.667 0 32-14.333 32-32s-14.333-32-32-32zM456.531 74.663h-110.937c-17.677 0-32 14.333-32 32s14.323 32 32 32h110.937c17.677 0 32-14.333 32-32s-14.323-32-32-32zM234.667 74.663h-64c-17.677 0-32 14.333-32 32v64c0 17.667 14.323 32 32 32s32-14.333 32-32v-32h32c17.677 0 32-14.333 32-32s-14.323-32-32-32zM170.667 249.6c-17.677 0-32 14.333-32 32v110.937c0 17.667 14.323 32 32 32s32-14.333 32-32v-110.937c0-17.667-14.323-32-32-32zM170.667 471.465c-17.677 0-32 14.323-32 32v110.937c0 17.677 14.323 32 32 32s32-14.323 32-32v-110.937c0-17.677-14.323-32-32-32zM170.667 693.329c-17.677 0-32 14.323-32 32v64c0 17.677 14.323 32 32 32h64c17.677 0 32-14.323 32-32s-14.323-32-32-32h-32v-32c0-17.677-14.323-32-32-32zM678.396 757.329h-110.917c-17.667 0-32 14.323-32 32s14.333 32 32 32h110.917c17.667 0 32-14.323 32-32s-14.333-32-32-32zM456.542 757.329h-110.937c-17.677 0-32 14.323-32 32s14.323 32 32 32h110.937c17.677 0 32-14.323 32-32s-14.323-32-32-32zM853.333 693.329c-17.667 0-32 14.323-32 32v32h-32c-17.667 0-32 14.323-32 32s14.333 32 32 32h64c17.667 0 32-14.323 32-32v-64c0-17.677-14.333-32-32-32zM853.333 249.6c-17.667 0-32 14.333-32 32v110.937c0 17.667 14.333 32 32 32s32-14.333 32-32v-110.937c0-17.667-14.333-32-32-32zM853.333 471.465c-17.667 0-32 14.323-32 32v110.937c0 17.677 14.333 32 32 32s32-14.323 32-32v-110.937c0-17.677-14.333-32-32-32z" />
<glyph unicode="&#xe92a;" glyph-name="shape-rect-fill" d="M170.667 789.333h682.667v-682.667h-682.667v682.667z" />
<glyph unicode="&#xe92b;" glyph-name="shape-stroke" d="M192 149.333h640c11.782 0 21.333-9.551 21.333-21.333v0c0-11.782-9.551-21.333-21.333-21.333h-640c-11.782 0-21.333 9.551-21.333 21.333v0c0 11.782 9.551 21.333 21.333 21.333zM192 789.333h640c11.782 0 21.333-9.551 21.333-21.333v-128c0-11.782-9.551-21.333-21.333-21.333h-640c-11.782 0-21.333 9.551-21.333 21.333v128c0 11.782 9.551 21.333 21.333 21.333zM192 533.333h640c11.782 0 21.333-9.551 21.333-21.333v-85.333c0-11.782-9.551-21.333-21.333-21.333h-640c-11.782 0-21.333 9.551-21.333 21.333v85.333c0 11.782 9.551 21.333 21.333 21.333zM192 320h640c11.782 0 21.333-9.551 21.333-21.333v-42.667c0-11.782-9.551-21.333-21.333-21.333h-640c-11.782 0-21.333 9.551-21.333 21.333v42.667c0 11.782 9.551 21.333 21.333 21.333z" />
<glyph unicode="&#xe92c;" glyph-name="shape-triangle" d="M853.333 74.663h-682.667c-11.094 0-21.385 5.75-27.219 15.167-5.833 9.437-6.365 21.229-1.406 31.146l341.333 682.667c5.427 10.844 16.5 17.688 28.625 17.688s23.208-6.844 28.625-17.688l341.333-682.667c4.958-9.917 4.417-21.708-1.396-31.146-5.833-9.417-16.146-15.167-27.229-15.167zM222.448 138.663h579.115l-289.563 579.115-289.552-579.115z" />
<glyph unicode="&#xe92d;" glyph-name="shape-triangle-dash" d="M540.646 700.079c-11.729 0-23.031 6.49-28.646 17.698v0c-7.917-15.823-27.125-22.219-42.937-14.312-15.802 7.906-22.208 27.135-14.312 42.937l28.625 57.24c5.427 10.844 16.5 17.688 28.625 17.688s23.208-6.844 28.625-17.688l28.625-57.24c7.896-15.802 1.5-35.031-14.312-42.937-4.604-2.292-9.479-3.385-14.292-3.385zM256.083 245.538c-4.812 0-9.698 1.083-14.292 3.375-15.802 7.917-22.208 27.125-14.312 42.937l56.823 113.646c7.927 15.812 27.167 22.188 42.937 14.312 15.802-7.917 22.208-27.125 14.312-42.937l-56.823-113.646c-5.615-11.208-16.917-17.688-28.646-17.688zM369.719 472.809c-4.812 0-9.698 1.094-14.292 3.385-15.802 7.906-22.208 27.125-14.312 42.937l56.823 113.635c7.927 15.802 27.177 22.156 42.937 14.312 15.802-7.906 22.208-27.125 14.312-42.937l-56.823-113.635c-5.615-11.208-16.917-17.698-28.646-17.698zM234.667 74.663h-64c-11.094 0-21.385 5.75-27.219 15.167-5.833 9.437-6.365 21.229-1.406 31.146l28.625 57.25c7.927 15.792 27.156 22.167 42.937 14.312 15.802-7.917 22.208-27.125 14.312-42.937l-5.469-10.937h12.219c17.677 0 32-14.333 32-32s-14.323-32-32-32zM678.396 74.663h-110.917c-17.667 0-32 14.333-32 32s14.333 32 32 32h110.917c17.667 0 32-14.333 32-32s-14.333-32-32-32zM456.542 74.663h-110.937c-17.677 0-32 14.333-32 32s14.323 32 32 32h110.937c17.677 0 32-14.333 32-32s-14.323-32-32-32zM853.333 74.663h-64c-17.667 0-32 14.333-32 32s14.333 32 32 32h12.229l-5.479 10.937c-7.896 15.812-1.5 35.021 14.312 42.937 15.833 7.854 35.042 1.479 42.937-14.312l28.625-57.25c4.958-9.917 4.417-21.708-1.396-31.146-5.833-9.417-16.146-15.167-27.229-15.167zM767.917 245.538c-11.729 0-23.042 6.479-28.646 17.688l-56.812 113.625c-7.896 15.812-1.5 35.021 14.312 42.937 15.854 7.854 35.042 1.479 42.937-14.312l56.812-113.625c7.896-15.812 1.5-35.021-14.312-42.937-4.604-2.292-9.479-3.375-14.292-3.375zM654.271 472.798c-11.729 0-23.042 6.49-28.646 17.698l-56.812 113.635c-7.896 15.812-1.5 35.031 14.312 42.937 15.854 7.854 35.042 1.49 42.937-14.312l56.812-113.635c7.896-15.812 1.5-35.031-14.312-42.937-4.604-2.292-9.479-3.385-14.292-3.385z" />
<glyph unicode="&#xe92e;" glyph-name="shape-triangle-fill" d="M512 789.333l-341.333-682.667h682.667l-341.333 682.667z" />
<glyph unicode="&#xe92f;" glyph-name="sparkle" d="M512-10.671c-13.823 0-26.083 8.875-30.396 22l-90.646 275.583c-3.063 9.292-8.333 17.875-15.25 24.792-6.927 6.917-15.5 12.188-24.771 15.229l-275.604 90.667c-13.125 4.312-22 16.573-22 30.396s8.875 26.083 22 30.396l275.573 90.646c9.312 3.073 17.896 8.344 24.802 15.25 6.917 6.917 12.188 15.49 15.25 24.792l90.646 275.583c4.312 13.125 16.573 22 30.396 22s26.083-8.875 30.396-22l90.646-275.573c3.063-9.312 8.333-17.896 15.25-24.802s15.5-12.188 24.812-15.25l275.563-90.646c13.125-4.312 22-16.573 22-30.396s-8.875-26.083-22-30.396l-275.583-90.646c-9.292-3.042-17.854-8.312-24.792-15.25-6.917-6.917-12.188-15.5-15.25-24.812l-90.646-275.563c-4.312-13.125-16.573-22-30.396-22zM187.74 447.996l183.167-60.25c18.74-6.146 36.063-16.792 50.052-30.792 13.979-13.979 24.625-31.292 30.792-50.042l60.25-183.167 60.25 183.167c6.188 18.792 16.833 36.083 30.792 50.042 14 14 31.312 24.646 50.063 30.812l183.146 60.229-183.167 60.25c-18.792 6.188-36.083 16.833-50.042 30.792-13.958 13.948-24.604 31.26-30.792 50.042l-60.25 183.177-60.25-183.167c-6.167-18.771-16.812-36.083-30.792-50.052-13.948-13.958-31.26-24.604-50.042-30.792l-183.177-60.25zM180.177 653.038c-17.677 0-32 14.323-32 32v189.625c0 17.677 14.323 32 32 32s32-14.323 32-32v-189.625c0-17.677-14.323-32-32-32zM843.854-10.65c-17.667 0-32 14.333-32 32v189.625c0 17.667 14.333 32 32 32s32-14.333 32-32v-189.625c0-17.667-14.333-32-32-32zM274.958 747.84h-189.625c-17.677 0-32 14.323-32 32s14.323 32 32 32h189.625c17.677 0 32-14.323 32-32s-14.323-32-32-32zM938.625 84.142h-189.625c-17.667 0-32 14.333-32 32s14.333 32 32 32h189.625c17.667 0 32-14.333 32-32s-14.333-32-32-32z" />
<glyph unicode="&#xe930;" glyph-name="square" d="M640-10.671h-256c-231.771 0-330.667 98.896-330.667 330.667v256c0 231.771 98.896 330.667 330.667 330.667h256c231.771 0 330.667-98.896 330.667-330.667v-256c0-231.771-98.896-330.667-330.667-330.667z" />
<glyph unicode="&#xe931;" glyph-name="star-filled" d="M753.646-7.066c-22.688 0-51.812 7.104-88.104 28.563l-127.604 75.521c-12.958 7.688-38.781 7.625-52.094-0.125l-127.354-75.396c-75.365-44.708-119.979-27.042-139.854-12.5-19.865 14.521-50.229 51.604-30.5 136.854l30.292 130.979c3.146 14.063-3.458 37.208-13.635 47.396l-105.812 105.812c-52.719 52.719-48.583 98.031-41.427 120.354 7.146 22.302 30.115 61.542 103.594 73.781l136.115 22.615c12.531 2.135 31.094 15.927 36.667 27.312l75.208 150.427c34.448 68.521 79.125 78.802 102.812 78.802h0.167c23.594-0.042 68.24-10.354 102.323-78.812l75.104-150.177c5.792-11.854 24.167-25.375 37.229-27.552l136.083-22.615c73.75-12.281 96.708-51.646 103.833-74.021 7.125-22.333 11.167-67.646-41.75-120.198l-105.729-105.729c-10.188-10.188-16.792-33.333-13.583-47.604l30.25-130.771c19.688-85.479-10.521-122.521-30.292-136.979-10.312-7.542-27.312-15.937-51.937-15.937z" />
<glyph unicode="&#xe932;" glyph-name="sun-3" d="M512 245.329c-111.75 0-202.667 90.917-202.667 202.667s90.917 202.667 202.667 202.667 202.667-90.917 202.667-202.667-90.917-202.667-202.667-202.667zM512 586.663c-76.458 0-138.667-62.208-138.667-138.667s62.208-138.667 138.667-138.667 138.667 62.208 138.667 138.667-62.208 138.667-138.667 138.667zM512 757.329c-17.677 0-32 14.323-32 32v85.333c0 17.677 14.323 32 32 32s32-14.323 32-32v-85.333c0-17.677-14.323-32-32-32zM512-10.671c-17.677 0-32 14.333-32 32v85.333c0 17.667 14.323 32 32 32s32-14.333 32-32v-85.333c0-17.667-14.323-32-32-32zM170.667 415.996h-85.333c-17.677 0-32 14.323-32 32s14.323 32 32 32h85.333c17.677 0 32-14.323 32-32s-14.323-32-32-32zM938.667 415.996h-85.333c-17.667 0-32 14.323-32 32s14.333 32 32 32h85.333c17.667 0 32-14.323 32-32s-14.333-32-32-32zM270.646 657.361c-8.188 0-16.375 3.125-22.625 9.375l-60.344 60.333c-12.5 12.49-12.5 32.75 0 45.25 12.479 12.5 32.75 12.5 45.25 0l60.344-60.333c12.5-12.49 12.5-32.75 0-45.25-6.24-6.25-14.437-9.375-22.625-9.375zM813.708 114.309c-8.188 0-16.375 3.125-22.625 9.375l-60.354 60.333c-12.5 12.479-12.5 32.75 0 45.25s32.75 12.5 45.25 0l60.354-60.333c12.5-12.479 12.5-32.75 0-45.25-6.25-6.25-14.437-9.375-22.625-9.375zM210.302 114.309c-8.188 0-16.385 3.125-22.625 9.375-12.5 12.5-12.5 32.75 0 45.25l60.344 60.333c12.5 12.5 32.771 12.5 45.25 0 12.5-12.5 12.5-32.75 0-45.25l-60.344-60.333c-6.25-6.25-14.437-9.375-22.625-9.375zM753.354 657.361c-8.188 0-16.375 3.125-22.625 9.375-12.5 12.5-12.5 32.76 0 45.26l60.354 60.333c12.5 12.479 32.75 12.49 45.25-0.010s12.5-32.76 0-45.26l-60.354-60.333c-6.25-6.24-14.437-9.365-22.625-9.365z" />
<glyph unicode="&#xe933;" glyph-name="tick" d="M451.417 295.267c-8.188 0-16.375 3.125-22.625 9.375l-120.75 120.729c-12.5 12.5-12.5 32.76 0 45.26 12.479 12.5 32.75 12.5 45.25 0l98.146-98.135 219.292 218.896c12.521 12.49 32.771 12.469 45.25-0.042s12.479-32.771-0.042-45.25l-241.917-241.479c-6.24-6.229-14.427-9.354-22.604-9.354z" />
<glyph unicode="&#xe934;" glyph-name="up" d="M224.006 320c0 8.156 3.104 16.323 9.312 22.563l254.583 256c5.99 6.021 14.125 9.417 22.615 9.437 8.479 0.021 16.635-3.323 22.646-9.312l257.406-256c12.521-12.469 12.573-32.729 0.125-45.25-12.458-12.531-32.719-12.594-45.25-0.125l-234.719 233.437-232.031-233.312c-12.458-12.531-32.729-12.594-45.25-0.125-6.292 6.25-9.437 14.469-9.437 22.688z" />
<glyph unicode="&#xe935;" glyph-name="whiteboard" d="M768 74.663h-512c-111.75 0-202.667 90.917-202.667 202.667v341.333c0 111.75 90.917 202.667 202.667 202.667h426.667c17.667 0 32-14.323 32-32s-14.333-32-32-32h-426.667c-76.458 0-138.667-62.208-138.667-138.667v-341.333c0-76.458 62.208-138.667 138.667-138.667h512c76.458 0 138.667 62.208 138.667 138.667v256c0 17.677 14.333 32 32 32s32-14.323 32-32v-256c0-111.75-90.917-202.667-202.667-202.667zM878.327 789.333l60.34-60.34-238.327-238.327h-60.34v60.34l238.327 238.327zM878.327 853.333c-16.379 0-32.758-6.248-45.255-18.745l-238.327-238.327c-12.002-12.002-18.745-28.281-18.745-45.255v-60.34c0-35.346 28.654-64 64-64h60.34c16.974 0 33.252 6.743 45.255 18.745l238.327 238.327c24.993 24.993 24.993 65.516 0 90.51l-60.34 60.34c-12.497 12.497-28.876 18.745-45.255 18.745v0zM385.042 306.913c-2.781 0-5.563 0.083-8.323 0.292-42.76 3.083-80.042 31.854-90.635 70-9.427 33.979 2.552 64.49 13.115 91.406 7.5 19.104 14.583 37.146 11.26 50.646-3.521 14.333-22.896 25.823-41.031 24.667-19.99-1.323-41.219-14.198-58.229-35.333-16.781-20.854-28.219-46.667-40.333-74l-1.5-3.385c-14.604-32.937-29.677-64.729-53.375-91.5-11.708-13.229-31.917-14.479-45.167-2.75-13.229 11.708-14.469 31.937-2.75 45.167 17.646 19.937 29.823 45.792 42.792 75.031l1.49 3.375c13.25 29.896 26.948 60.812 48.99 88.188 28.198 35.052 66.063 56.573 103.885 59.063 49.229 3.448 96.479-28.937 107.375-73.229 8.177-33.25-3.51-63.042-13.833-89.323-7.906-20.146-14.729-37.521-11.021-50.917 3.323-11.917 18.073-22.146 33.583-23.271 17.042-1.063 36.26 5.896 54.333 20.063 18.802 14.75 34.812 35.354 50.302 55.292 10.823 13.969 30.948 16.5 44.896 5.646 13.969-10.844 16.49-30.937 5.656-44.896-17.042-21.937-36.354-46.792-61.365-66.417-28.063-21.979-59.75-33.812-90.115-33.812z" />
<glyph unicode="&#xe936;" glyph-name="w-pen" d="M236.457 61.923c-25.937 0-49.885 8.937-67.667 25.688-22.385 21.083-33.052 52.667-29.271 86.667l15.792 138.312c3.563 26.729 19.458 60.563 37.063 79.302l350.375 370.865c87.375 92.281 178.479 95.031 270.875 8.125 50.812-48.052 74.771-97.844 71.271-148.031-2.854-40.875-23.646-81.24-63.563-123.406l-350.271-370.75c-17.115-18.771-50.365-36.792-76.969-41.521l-137.604-23.5c-6.76-1.167-13.458-1.75-20.031-1.75zM589.249 718.778l-350.292-370.771c-8.417-8.958-18.417-30.417-20.135-43.271l-15.708-137.625c-1.552-13.937 1.844-25.646 9.552-32.917 7.594-7.167 19.312-9.771 33-7.437l137.437 23.458c12.521 2.229 32.969 13.167 41.063 22.021l350.688 371.188c29.312 30.969 44.417 58.406 46.188 83.875 2.146 30.594-14.646 62.333-51.333 97.031-76.896 72.323-127.729 50.104-180.458-5.552zM740.103 427.090c-1.083 0-2.167 0.052-3.25 0.156-133.104 13.417-240.396 114.833-260.937 246.646-2.729 17.458 9.229 33.823 26.688 36.542 17.448 2.677 33.833-9.229 36.542-26.688 16.063-103.042 100-182.333 204.125-192.812 17.583-1.781 30.396-17.469 28.625-35.052-1.646-16.49-15.563-28.792-31.792-28.792z" />
<glyph unicode="&#xe937;" glyph-name="dcube" d="M511.969 437.298c-18.656 0-37.302 4.552-54.302 13.635l-277.865 149.812c-25.375 13.688-41.135 40.74-41.135 70.625 0 29.875 15.76 56.927 41.135 70.615l277.76 149.76c34.094 18.24 74.74 18.271 108.771 0.052l0.104-0.052 277.771-149.76c25.375-13.688 41.125-40.75 41.125-70.615 0-29.875-15.75-56.937-41.125-70.625l-277.771-149.76c-17.083-9.125-35.781-13.688-54.469-13.688zM512 841.517c-8.24 0-16.479-2.052-24.156-6.156l-277.667-149.708c-6.969-3.76-7.51-11.885-7.51-14.281 0-2.406 0.542-10.531 7.51-14.292l277.76-149.76c15.25-8.135 32.875-8.146 48.229 0.052l277.667 149.708c6.958 3.75 7.5 11.885 7.5 14.292 0 2.396-0.542 10.531-7.5 14.281l-277.729 149.729c-7.656 4.094-15.875 6.135-24.104 6.135zM417.406-9.796c-12.177 0-24.396 2.812-35.771 8.5l-258.156 129.292c-43.312 21.937-70.146 65.396-70.146 113.5v244.063c0 27.708 14.031 52.927 37.542 67.448 23.604 14.615 52.563 15.885 77.469 3.406h0.021l258.125-129.292c43.312-21.937 70.146-65.396 70.146-113.5v-244.063c0-27.708-14.031-52.917-37.531-67.437-12.823-7.937-27.229-11.917-41.698-11.917zM132.667 500.902c-3.802 0-6.74-1.458-8.156-2.333-2.677-1.656-7.177-5.552-7.177-13.010v-244.063c0-23.479 13.719-45.604 34.937-56.354l258.010-129.208c7.094-3.5 12.979-0.75 15.177 0.625 2.688 1.646 7.177 5.542 7.177 13v244.063c0 23.479-13.719 45.604-34.937 56.354l-258 129.208c-2.531 1.271-4.917 1.719-7.031 1.719zM606.583-9.796c-14.479 0-28.875 3.979-41.708 11.917-23.5 14.521-37.521 39.729-37.521 67.437v244.063c0 48.104 26.833 91.563 70.021 113.437l258.292 129.354c24.854 12.458 53.792 11.188 77.458-3.396 23.5-14.531 37.542-39.74 37.542-67.458v-244.063c0-48.104-26.833-91.563-70.021-113.437l-258.25-129.333c-11.396-5.708-23.625-8.521-35.812-8.521zM884.312 499.184l-258.146-129.271c-21.104-10.688-34.812-32.812-34.812-56.292v-244.063c0-7.458 4.5-11.333 7.167-13 2.208-1.354 8.167-4.146 15.229-0.604l258.104 129.25c21.104 10.688 34.812 32.812 34.812 56.292v244.063c0 7.458-4.5 11.354-7.188 13.010-2.188 1.365-8.104 4.177-15.167 0.615z" />
<glyph unicode="&#xe938;" glyph-name="d-cube-scan" d="M938.667 543.996c-17.667 0-32 14.323-32 32v85.333c0 110.156-71.188 181.333-181.333 181.333h-426.667c-110.156 0-181.333-71.177-181.333-181.333v-85.333c0-17.677-14.323-32-32-32s-32 14.323-32 32v85.333c0 146.74 98.594 245.333 245.333 245.333h426.667c146.75 0 245.333-98.594 245.333-245.333v-85.333c0-17.677-14.333-32-32-32zM725.333-10.671h-426.667c-146.74 0-245.333 98.583-245.333 245.333v85.333c0 17.667 14.323 32 32 32s32-14.333 32-32v-85.333c0-110.146 71.177-181.333 181.333-181.333h426.667c110.146 0 181.333 71.188 181.333 181.333v85.333c0 17.667 14.333 32 32 32s32-14.333 32-32v-85.333c0-146.75-98.583-245.333-245.333-245.333zM512 401.934c-5.542 0-11.073 1.437-16.042 4.312l-226.135 130.979c-15.292 8.854-20.51 28.437-11.646 43.729 8.833 15.292 28.427 20.51 43.729 11.646l210.083-121.677 208.385 120.823c15.208 8.823 34.854 3.667 43.729-11.635 8.854-15.292 3.646-34.875-11.646-43.74l-224.406-130.125c-4.958-2.875-10.51-4.312-16.052-4.312zM512 169.809c-17.677 0-32 14.333-32 32v232.521c0 17.677 14.323 32 32 32s32-14.323 32-32v-232.521c0-17.667-14.323-32-32-32zM512.031 159.663c-24.583 0-49.094 5.458-68.563 16.354l-136.458 75.896c-40.729 22.312-72.771 76.604-72.771 123.521v144.646c0 46.604 31.969 100.875 72.781 123.552l136.344 75.833c39.104 22.323 98.24 22.312 137.719-0.010l136.354-75.833c40.708-22.312 72.75-76.615 72.75-123.542v-144.646c0-46.604-31.958-100.854-72.771-123.542l-136.521-75.917c-19.729-10.875-44.333-16.312-68.865-16.312zM511.948 672.121c-13.708 0-27.323-2.76-36.927-8.281-0.125-0.063-0.25-0.135-0.375-0.208l-136.531-75.948c-20.875-11.594-39.875-43.812-39.875-67.604v-144.646c0-23.937 18.917-56.125 39.698-67.5l136.708-76.042c19.542-10.896 55.406-10.896 75.229 0.063l136.437 75.875c20.875 11.604 39.875 43.812 39.875 67.604v144.646c0 23.948-18.917 56.125-39.688 67.51l-136.729 76.042c-10 5.656-23.958 8.49-37.823 8.49zM459.094 691.6v0z" />
<glyph unicode="&#xe939;" glyph-name="dots-more" d="M213.333 330.663c-64.698 0-117.333 52.646-117.333 117.333 0 64.698 52.635 117.333 117.333 117.333s117.333-52.635 117.333-117.333c0-64.688-52.635-117.333-117.333-117.333zM213.333 501.329c-29.406 0-53.333-23.927-53.333-53.333 0-29.417 23.927-53.333 53.333-53.333s53.333 23.917 53.333 53.333c0 29.406-23.927 53.333-53.333 53.333zM810.667 330.663c-64.688 0-117.333 52.646-117.333 117.333 0 64.698 52.646 117.333 117.333 117.333s117.333-52.635 117.333-117.333c0-64.688-52.646-117.333-117.333-117.333zM810.667 501.329c-29.417 0-53.333-23.927-53.333-53.333 0-29.417 23.917-53.333 53.333-53.333s53.333 23.917 53.333 53.333c0 29.406-23.917 53.333-53.333 53.333zM512 330.663c-64.698 0-117.333 52.646-117.333 117.333 0 64.698 52.635 117.333 117.333 117.333 64.688 0 117.333-52.635 117.333-117.333 0-64.688-52.646-117.333-117.333-117.333zM512 501.329c-29.406 0-53.333-23.927-53.333-53.333 0-29.417 23.927-53.333 53.333-53.333 29.417 0 53.333 23.917 53.333 53.333 0 29.406-23.917 53.333-53.333 53.333z" />
<glyph unicode="&#xe93a;" glyph-name="d-rotate" d="M512 401.934c-5.542 0-11.073 1.437-16.042 4.312l-226.135 130.979c-15.292 8.854-20.51 28.437-11.646 43.729 8.833 15.292 28.427 20.51 43.729 11.646l210.083-121.677 208.385 120.823c15.208 8.823 34.854 3.667 43.729-11.635 8.854-15.292 3.646-34.875-11.646-43.74l-224.406-130.125c-4.958-2.875-10.51-4.312-16.052-4.312zM512 169.809c-17.677 0-32 14.333-32 32v232.521c0 17.677 14.323 32 32 32s32-14.323 32-32v-232.521c0-17.667-14.323-32-32-32zM512.021 159.704c-24.573 0-49.073 5.437-68.531 16.312l-136.479 75.917c-40.729 22.312-72.771 76.625-72.771 123.542v144.635c0 46.604 31.969 100.875 72.781 123.552l136.344 75.833c38.781 22.135 97.802 22.417 137.406 0.594l136.667-76.010c40.708-22.312 72.75-76.615 72.75-123.542v-145.063c0-46.604-31.958-100.875-72.771-123.563l-136.521-75.917c-19.729-10.875-44.333-16.292-68.875-16.292zM512.469 672.225c-13.896 0-27.75-2.781-37.448-8.354-0.125-0.063-0.25-0.135-0.375-0.208l-136.531-75.948c-20.875-11.594-39.875-43.812-39.875-67.604v-144.635c0-23.958 18.917-56.146 39.698-67.521l136.708-76.042c19.552-10.917 55.385-10.875 75.25 0.083l136.417 75.854c20.875 11.604 39.875 43.833 39.875 67.625v145.063c0 23.948-18.917 56.125-39.688 67.51l-136.729 76.042c-9.833 5.427-23.583 8.135-37.302 8.135zM459.094 691.632v0zM640-10.671c-11.521 0-22.167 6.208-27.854 16.229-5.667 10.042-5.521 22.354 0.417 32.229l44.792 74.667c9.104 15.167 28.792 20.104 43.896 10.979 15.167-9.083 20.083-28.75 10.979-43.896l-11.542-19.25c117.896 27.563 205.979 133.542 205.979 259.708 0 17.667 14.333 32 32 32s32-14.333 32-32c0-182.333-148.333-330.667-330.667-330.667zM85.333 543.996c-17.677 0-32 14.323-32 32 0 182.333 148.333 330.667 330.667 330.667 11.531 0 22.167-6.198 27.844-16.229 5.688-10.042 5.531-22.354-0.406-32.24l-44.802-74.667c-9.115-15.135-28.771-20.042-43.906-10.969-15.146 9.094-20.063 28.75-10.969 43.906l11.542 19.229c-117.896-27.552-205.969-133.531-205.969-259.698 0-17.677-14.323-32-32-32z" />
<glyph unicode="&#xe93b;" glyph-name="d-square" d="M640-10.671h-256c-231.771 0-330.667 98.896-330.667 330.667v256c0 231.771 98.896 330.667 330.667 330.667h256c231.771 0 330.667-98.896 330.667-330.667v-256c0-231.771-98.896-330.667-330.667-330.667zM384 842.663c-196.885 0-266.667-69.781-266.667-266.667v-256c0-196.875 69.781-266.667 266.667-266.667h256c196.875 0 266.667 69.792 266.667 266.667v256c0 196.885-69.792 266.667-266.667 266.667h-256zM512 401.934c-5.542 0-11.073 1.437-16.042 4.312l-226.135 130.979c-15.292 8.854-20.51 28.437-11.646 43.729 8.833 15.292 28.427 20.51 43.729 11.646l210.083-121.677 208.385 120.823c15.208 8.823 34.854 3.667 43.729-11.635 8.854-15.292 3.646-34.875-11.646-43.74l-224.406-130.125c-4.958-2.875-10.51-4.312-16.052-4.312zM512 169.809c-17.677 0-32 14.333-32 32v232.521c0 17.677 14.323 32 32 32s32-14.323 32-32v-232.521c0-17.667-14.323-32-32-32zM512.021 159.704c-24.573 0-49.073 5.437-68.531 16.312l-136.479 75.917c-40.729 22.312-72.771 76.625-72.771 123.542v144.635c0 46.604 31.969 100.875 72.781 123.552l136.344 75.833c38.781 22.135 97.802 22.417 137.406 0.594l136.667-76.010c40.708-22.312 72.75-76.615 72.75-123.542v-145.063c0-46.604-31.958-100.875-72.771-123.563l-136.521-75.917c-19.729-10.875-44.333-16.292-68.875-16.292zM512.469 672.225c-13.896 0-27.75-2.781-37.448-8.354-0.125-0.063-0.25-0.135-0.375-0.208l-136.531-75.948c-20.875-11.594-39.875-43.812-39.875-67.604v-144.635c0-23.958 18.917-56.146 39.698-67.521l136.708-76.042c19.552-10.917 55.385-10.875 75.25 0.083l136.417 75.854c20.875 11.604 39.875 43.833 39.875 67.625v145.063c0 23.948-18.917 56.125-39.688 67.51l-136.729 76.042c-9.833 5.427-23.583 8.135-37.302 8.135zM459.094 691.632v0z" />
<glyph unicode="&#xe93c;" glyph-name="square1" d="M399.792-10.671h-202.667c-98.104 0-143.792 45.688-143.792 143.792v202.667c0 98.385 45.688 144.208 143.792 144.208h101.542c17.677 0 32-14.323 32-32v-101.125c0-62.208 17.896-80.208 79.792-80.208h101.542c17.677 0 32-14.333 32-32v-101.542c0-98.104-45.823-143.792-144.208-143.792zM197.125 415.996c-61.896 0-79.792-18-79.792-80.208v-202.667c0-61.896 17.896-79.792 79.792-79.792h202.667c62.219 0 80.208 17.896 80.208 79.792v69.542h-69.542c-98.104 0-143.792 45.833-143.792 144.208v69.125h-69.542zM613.125 202.663h-202.667c-98.104 0-143.792 45.833-143.792 144.208v202.677c0 98.094 45.688 143.781 143.792 143.781h101.542c17.677 0 32-14.323 32-32v-101.115c0-62.229 17.896-80.219 79.792-80.219h101.542c17.667 0 32-14.323 32-32v-101.125c0-98.375-45.833-144.208-144.208-144.208zM410.458 629.329c-61.896 0-79.792-17.896-79.792-79.781v-202.677c0-62.208 17.896-80.208 79.792-80.208h202.667c62.208 0 80.208 18 80.208 80.208v69.125h-69.542c-98.104 0-143.792 45.823-143.792 144.219v69.115h-69.542zM826.458 415.996h-202.667c-98.104 0-143.792 45.823-143.792 144.219v202.667c0 98.094 45.688 143.781 143.792 143.781h202.667c98.375 0 144.208-45.688 144.208-143.781v-202.667c0-98.396-45.833-144.219-144.208-144.219zM623.792 842.663c-61.896 0-79.792-17.896-79.792-79.781v-202.667c0-62.229 17.896-80.219 79.792-80.219h202.667c62.208 0 80.208 17.99 80.208 80.219v202.667c0 61.885-18 79.781-80.208 79.781h-202.667z" />
<glyph unicode="&#xe93d;" glyph-name="support" d="M511.781-10.504c-30.010 0-60.010 11.271-82.844 33.812l-72.979 72.146c-17.76 17.75-42.49 27.875-67.958 27.875h-32c-88.229 0-160 71.188-160 158.708v465.49c0 87.521 71.771 158.719 160 158.719h512c88.229 0 160-71.198 160-158.719v-465.49c0-87.521-71.771-158.708-160-158.708h-32.417c-25.854 0-49.937-9.854-67.833-27.75l-73.083-72.25c-22.854-22.563-52.875-33.833-82.885-33.833zM256 842.246c-52.937 0-96-42.49-96-94.719v-465.49c0-52.229 43.063-94.708 96-94.708h32c42.312 0 83.531-16.937 113.083-46.5l72.833-72c20.854-20.563 54.854-20.583 75.771 0.021l72.937 72.104c29.854 29.854 70.021 46.375 112.958 46.375h32.417c52.937 0 96 42.479 96 94.708v465.49c0 52.229-43.063 94.719-96 94.719h-512zM442.875 340.454h-114.344c-18.594 0-36.229 8.979-47.156 24.021-10.573 14.542-13.49 32.563-8.021 49.417 15.083 45.771 51.802 70.75 84.208 92.781 34.052 23.167 53.312 37.479 53.312 62.469 0 22.115-17.99 40.104-40.104 40.104s-40.104-17.99-40.104-40.104c0-17.677-14.323-32-32-32s-32 14.323-32 32c0 57.406 46.698 104.104 104.104 104.104s104.104-46.698 104.104-104.104c0-60.073-45.094-90.74-81.323-115.385-22.458-15.271-43.854-29.823-54.75-49.302h104.073c17.677 0 32-14.333 32-32s-14.323-32-32-32zM684.375 340.871c-17.667 0-32 14.333-32 32v29.437h-83.625c-21.104 0-40.698 11.167-51.146 29.156-10.375 17.937-10.385 41.063-0.042 58.969 26.979 46 61.875 105.146 93.542 156.167 13.604 21.375 39.708 31.406 64 24.604 24.292-6.812 41.271-29.312 41.271-54.708v-150.188h8.958c17.667 0 32-14.323 32-32 0-17.667-14.333-32-32-32h-8.958v-29.437c0-17.667-14.333-32-32-32zM577.604 466.309h74.771v125.271c-25.646-41.906-52.563-87.458-74.771-125.271z" />
<glyph unicode="&#xe93e;" glyph-name="aave-aave" d="M682.688 245.329c-12.271 0-23.958 7.083-29.271 19l-141.417 318.208-141.427-318.208c-7.177-16.146-26.042-23.437-42.24-16.25-16.146 7.188-23.417 26.104-16.24 42.25l170.667 384c5.135 11.552 16.594 19 29.24 19s24.104-7.448 29.25-19l170.667-384c7.167-16.146-0.104-35.063-16.25-42.25-4.229-1.875-8.646-2.75-12.979-2.75zM512 415.996h-170.667c-17.677 0-32 14.323-32 32s14.323 32 32 32h170.667c17.677 0 32-14.323 32-32s-14.323-32-32-32zM512-10.671c-252.906 0-458.667 205.75-458.667 458.667 0 252.906 205.76 458.667 458.667 458.667 252.917 0 458.667-205.76 458.667-458.667 0-252.917-205.75-458.667-458.667-458.667zM512 842.663c-217.625 0-394.667-177.042-394.667-394.667s177.042-394.667 394.667-394.667 394.667 177.042 394.667 394.667-177.042 394.667-394.667 394.667z" />
<glyph unicode="&#xe93f;" glyph-name="activity" d="M640-10.671h-256c-231.771 0-330.667 98.896-330.667 330.667v256c0 231.771 98.896 330.667 330.667 330.667h256c231.771 0 330.667-98.896 330.667-330.667v-256c0-231.771-98.896-330.667-330.667-330.667zM384 842.663c-196.885 0-266.667-69.781-266.667-266.667v-256c0-196.875 69.781-266.667 266.667-266.667h256c196.875 0 266.667 69.792 266.667 266.667v256c0 196.885-69.792 266.667-266.667 266.667h-256zM312.729 309.767c-6.823 0-13.688 2.167-19.5 6.646-14.010 10.792-16.615 30.875-5.833 44.875l101.542 131.844c25.292 32.708 72.417 38.708 105.083 13.479l78.312-61.615c4.604-3.542 11.542-2.75 15.25 1.937l98.375 126.917c10.854 13.99 30.937 16.51 44.896 5.688 13.979-10.833 16.521-30.927 5.688-44.896l-98.563-127.146c-25.521-32.312-72.521-38.063-105-12.979l-78.312 61.625c-4.635 3.552-11.323 2.719-15.063-2.104l-101.5-131.792c-6.302-8.188-15.792-12.479-25.375-12.479z" />
<glyph unicode="&#xe940;" glyph-name="add" d="M768 415.996h-512c-17.677 0-32 14.323-32 32s14.323 32 32 32h512c17.667 0 32-14.323 32-32s-14.333-32-32-32zM512 159.996c-17.677 0-32 14.333-32 32v512c0 17.677 14.323 32 32 32s32-14.323 32-32v-512c0-17.667-14.323-32-32-32z" />
<glyph unicode="&#xe941;" glyph-name="add-circle" d="M512-10.671c-252.906 0-458.667 205.75-458.667 458.667 0 252.906 205.76 458.667 458.667 458.667 252.917 0 458.667-205.76 458.667-458.667 0-252.917-205.75-458.667-458.667-458.667zM512 842.663c-217.625 0-394.667-177.042-394.667-394.667s177.042-394.667 394.667-394.667 394.667 177.042 394.667 394.667-177.042 394.667-394.667 394.667zM682.667 415.996h-341.333c-17.677 0-32 14.323-32 32s14.323 32 32 32h341.333c17.667 0 32-14.323 32-32s-14.333-32-32-32zM512 245.329c-17.677 0-32 14.333-32 32v341.333c0 17.677 14.323 32 32 32s32-14.323 32-32v-341.333c0-17.667-14.323-32-32-32z" />
<glyph unicode="&#xe942;" glyph-name="add-item" d="M341.333 245.329h-109.656c-115.010 0-178.344 63.333-178.344 178.354v304.635c0 115.010 63.333 178.344 178.344 178.344h194.99c115.021 0 178.354-63.333 178.354-178.344 0-17.677-14.333-32-32-32s-32 14.323-32 32c0 80.146-34.198 114.344-114.354 114.344h-194.99c-80.146 0-114.344-34.198-114.344-114.344v-304.635c0-80.146 34.198-114.354 114.344-114.354h109.656c17.677 0 32-14.333 32-32s-14.323-32-32-32zM792.312-10.671h-194.979c-115.010 0-178.354 63.333-178.354 178.354v304.635c0 115.010 63.344 178.344 178.354 178.344h194.979c115.021 0 178.354-63.333 178.354-178.344v-304.635c0-115.021-63.333-178.354-178.354-178.354zM597.333 586.663c-80.156 0-114.354-34.198-114.354-114.344v-304.635c0-80.146 34.198-114.354 114.354-114.354h194.979c80.146 0 114.354 34.208 114.354 114.354v304.635c0 80.146-34.208 114.344-114.354 114.344h-194.979zM773.542 287.996h-139.083c-17.667 0-32 14.333-32 32s14.333 32 32 32h139.083c17.667 0 32-14.333 32-32s-14.333-32-32-32zM704 218.496c-17.667 0-32 14.333-32 32v139.083c0 17.667 14.333 32 32 32s32-14.333 32-32v-139.083c0-17.667-14.333-32-32-32z" />
<glyph unicode="&#xe943;" glyph-name="add-square" d="M682.667 415.996h-341.333c-17.677 0-32 14.323-32 32s14.323 32 32 32h341.333c17.667 0 32-14.323 32-32s-14.333-32-32-32zM512 245.329c-17.677 0-32 14.333-32 32v341.333c0 17.677 14.323 32 32 32s32-14.323 32-32v-341.333c0-17.667-14.323-32-32-32zM640-10.671h-256c-231.771 0-330.667 98.896-330.667 330.667v256c0 231.771 98.896 330.667 330.667 330.667h256c231.771 0 330.667-98.896 330.667-330.667v-256c0-231.771-98.896-330.667-330.667-330.667zM384 842.663c-196.885 0-266.667-69.781-266.667-266.667v-256c0-196.875 69.781-266.667 266.667-266.667h256c196.875 0 266.667 69.792 266.667 266.667v256c0 196.885-69.792 266.667-266.667 266.667h-256z" />
<glyph unicode="&#xe944;" glyph-name="ai-ac" d="M225.917 563.204c-17.021 0-31.812 11.531-35.948 28.063l-11.25 49.302c-5.281 22.802-23.51 41.031-46.417 46.333l-48.792 11.563c-16.917 4.229-28.469 19.010-28.469 36.042s11.552 31.812 28.083 35.948l49.281 11.25c22.802 5.281 41.031 23.51 46.333 46.417l11.563 48.802c4.229 16.927 19.010 28.458 36.042 28.458h0.042c17.042-0.010 31.812-11.573 35.917-28.115l11.24-49.25c5.375-23.146 23.177-40.948 46.427-46.333l48.792-11.563c16.917-4.229 28.469-19.010 28.469-36.042s-11.552-31.812-28.083-35.948l-0.646-0.156-48.635-11.094c-23.146-5.365-40.948-23.167-46.344-46.427l-11.552-48.781c-4.229-16.937-19.021-28.469-36.052-28.469zM183.417 734.298c17.406-10.583 32.115-25.292 42.708-42.729 10.594 17.406 25.302 32.115 42.74 42.719-17.417 10.583-32.125 25.292-42.719 42.729-10.583-17.406-25.302-32.115-42.729-42.719zM810.667 266.663h-597.333c-95.698 0-160 64.292-160 160v106.667c0 17.677 14.323 32 32 32s32-14.323 32-32v-106.667c0-28.854 9.354-96 96-96h597.333c86.646 0 96 67.146 96 96v213.333c0 28.865-9.354 96-96 96h-298.667c-17.677 0-32 14.323-32 32s14.323 32 32 32h298.667c95.708 0 160-64.302 160-160v-213.333c0-95.708-64.292-160-160-160zM704 394.663h-384c-17.677 0-32 14.333-32 32 0 17.677 14.323 32 32 32h384c17.667 0 32-14.323 32-32 0-17.667-14.333-32-32-32zM725.333 586.663h-85.333c-17.667 0-32 14.323-32 32s14.333 32 32 32h85.333c17.667 0 32-14.323 32-32s-14.333-32-32-32zM341.333 31.996c-17.677 0-32 14.333-32 32v85.333c0 17.667 14.323 32 32 32s32-14.333 32-32v-85.333c0-17.667-14.323-32-32-32zM512 31.996c-17.677 0-32 14.333-32 32v85.333c0 17.667 14.323 32 32 32s32-14.333 32-32v-85.333c0-17.667-14.323-32-32-32zM682.667 31.996c-17.667 0-32 14.333-32 32v85.333c0 17.667 14.333 32 32 32s32-14.333 32-32v-85.333c0-17.667-14.333-32-32-32z" />
<glyph unicode="&#xe945;" glyph-name="ai-add" d="M512-10.671c-252.906 0-458.667 205.75-458.667 458.667 0 252.906 205.76 458.667 458.667 458.667 252.917 0 458.667-205.76 458.667-458.667 0-25.312-2.167-51.063-6.417-76.521-2.937-17.437-19.521-29.083-36.833-26.292-17.437 2.917-29.208 19.417-26.292 36.833 3.688 21.979 5.542 44.188 5.542 65.979 0 217.625-177.042 394.667-394.667 394.667s-394.667-177.042-394.667-394.667 177.042-394.667 394.667-394.667c31.208 0 61.5 3.563 90.063 10.583 17.167 4.354 34.5-6.25 38.708-23.417 4.229-17.167-6.25-34.5-23.417-38.708-33.563-8.271-69-12.458-105.354-12.458zM682.667 415.996h-341.333c-17.677 0-32 14.323-32 32s14.323 32 32 32h341.333c17.667 0 32-14.323 32-32s-14.333-32-32-32zM512 245.329c-17.677 0-32 14.333-32 32v341.333c0 17.677 14.323 32 32 32s32-14.323 32-32v-341.333c0-17.667-14.323-32-32-32zM803.833-1.712c-17.188 0-32.063 11.583-36.167 28.146l-12.063 51.625c-5.812 25.063-24.771 44.188-49.437 49.917l-51.25 11.958c-17 4.208-28.583 19.083-28.583 36.292 0 17.188 11.583 32.063 28.146 36.167l51.646 12.063c25.042 5.812 44.167 24.771 49.917 49.458l11.937 51.229c4.208 16.958 19.063 28.542 36.208 28.583h0.083c17.125 0 32-11.521 36.146-28.042l12.083-51.75c5.833-25.042 24.792-44.167 49.479-49.917l51.208-11.937c17.042-4.292 28.583-19.167 28.583-36.292s-11.542-32-28.042-36.146l-0.542-0.146-51.188-11.937c-25.063-5.833-44.188-24.792-49.917-49.458l-11.958-51.229c-4.208-17-19.083-28.583-36.292-28.583zM756.542 176.163c19.708-11.417 36-27.833 47.354-47.688 11.417 19.708 27.833 36.021 47.688 47.375-19.708 11.417-36.021 27.812-47.375 47.667-11.417-19.708-27.812-36-47.667-47.354z" />
<glyph unicode="&#xe946;" glyph-name="ai-antenna" d="M184.104 507.621c-17.698 0-32.812 12.531-35.958 29.781l-9.969 43.906c-4.51 20.167-20.771 36.312-41.448 41.208l-45.198 10.656c-15.646 2.812-28.177 17.927-28.177 35.625s12.531 32.812 29.781 35.958l43.906 9.969c20.167 4.521 36.312 20.781 41.208 41.448l10.656 45.198c2.812 15.646 17.927 28.177 35.625 28.177s32.812-12.531 35.958-29.781l9.969-43.906c4.521-20.156 20.781-36.302 41.458-41.208l45.188-10.656c15.646-2.812 28.177-17.937 28.177-35.625 0-17.354-12.063-32.24-28.812-35.771l-44.875-10.156c-20.156-4.51-36.302-20.771-41.208-41.458l-10.656-45.188c-2.812-15.646-17.937-28.177-35.625-28.177zM157.76 551.663c-0.271-0.906-0.49-1.833-0.656-2.781l0.656 2.781zM210.375 552.225l0.458-2.021c-0.125 0.688-0.271 1.354-0.458 2.021zM149.365 668.527c13.979-9.115 25.937-21.031 35.021-34.896 9.115 13.979 21.031 25.937 34.896 35.021-13.99 9.115-25.937 21.031-35.021 34.896-9.115-13.99-21.031-25.937-34.896-35.021zM301.24 642.027c0.906-0.271 1.833-0.49 2.781-0.656l-2.781 0.656zM67.958 642.527l-2.021-0.458c0.688 0.125 1.354 0.271 2.021 0.458zM64.615 695.798l2.781-0.656c-0.906 0.271-1.833 0.49-2.781 0.656zM157.802 786.965c0.125-0.688 0.271-1.354 0.458-2.021l-0.458 2.021zM211.531 788.288l-0.656-2.781c0.271 0.906 0.49 1.833 0.656 2.781zM619.083 221.871c-107.385 0-212.354 43.375-288 119.021-32.667 32.667-59.469 70.667-79.646 112.958-7.604 15.948-0.844 35.052 15.104 42.667 15.917 7.563 35.063 0.844 42.667-15.104 17.031-35.708 39.615-67.75 67.125-95.271 63.74-63.729 152.219-100.271 242.75-100.271 79.792 0 157.979 28.375 219.042 78.729l-483.333 483.344c-7.906-9.583-15.292-19.625-22.083-30.031-9.656-14.792-29.49-18.979-44.292-9.292-14.792 9.667-18.958 29.5-9.292 44.292 15.063 23.052 32.542 44.583 51.958 64 12.5 12.5 32.75 12.5 45.25 0l530.771-530.771c6-6 9.375-14.146 9.375-22.625 0-8.5-3.375-16.625-9.375-22.625-75.667-75.646-180.646-119.021-288.021-119.021zM182.198 117.329c-7.771 0-15.437 2.833-21.427 8.229-9.281 8.354-12.854 21.354-9.135 33.271l98.135 315.323c5.24 16.875 23.177 26.323 40.063 21.042 16.875-5.25 26.292-23.188 21.042-40.063l-77.49-248.969 227.156 97.583c16.281 6.937 35.063-0.521 42.042-16.771 6.969-16.229-0.531-35.042-16.771-42.021l-290.99-125.021c-4.073-1.75-8.365-2.604-12.625-2.604zM791.042 427.1c-17.667 0-32 14.312-32 31.99v265.385c0 17.677 14.333 32 32 32s32-14.323 32-32v-265.385c0-17.677-14.333-31.99-32-31.99zM715.083 768.85h-267.937c-17.677 0-32 14.323-32 32s14.323 32 32 32h267.937c17.667 0 32-14.323 32-32s-14.333-32-32-32zM791.042 692.902c-59.521 0-107.958 48.427-107.958 107.948s48.437 107.948 107.958 107.948 107.937-48.427 107.937-107.948-48.417-107.948-107.937-107.948zM791.042 844.798c-24.229 0-43.958-19.719-43.958-43.948s19.729-43.948 43.958-43.948 43.937 19.719 43.937 43.948-19.708 43.948-43.937 43.948zM895.583-10.671h-766.729c-41.646 0-75.521 33.875-75.521 75.521v41.396c0 41.646 33.875 75.521 75.521 75.521h766.729c41.625 0 75.5-33.875 75.5-75.521v-41.396c0-41.646-33.875-75.521-75.5-75.521zM128.854 117.767c-6.25 0-11.521-5.271-11.521-11.521v-41.396c0-6.25 5.271-11.521 11.521-11.521h766.729c6.229 0 11.5 5.271 11.5 11.521v41.396c0 6.25-5.271 11.521-11.5 11.521h-766.729z" />
<glyph unicode="&#xe947;" glyph-name="ai-commentary" d="M679.896-36.587h-0.083c-17.563 0.021-32.542 11.979-36.437 29.042l-11.979 52.5c-5.771 25.458-25.958 45.625-51.417 51.417l-52.469 11.937c-17.208 4.021-29.094 19.063-29.063 36.625 0.031 17.542 11.958 32.542 29 36.437l52.531 11.979c25.479 5.771 45.646 25.937 51.417 51.396l11.958 52.5c3.917 17.125 18.437 29.604 36.542 29.063 17.521 0 32.521-11.875 36.5-28.896l11.979-52.646c5.792-25.458 25.958-45.646 51.396-51.417l52.5-11.958c17.083-3.917 29.042-18.896 29.063-36.458 0.042-17.583-11.854-32.625-28.937-36.583l-0.125-0.042-52.479-11.937c-25.458-5.792-45.625-25.958-51.417-51.417l-11.937-52.479c-4-17.188-19-29.063-36.542-29.063zM629.979 144.85c20.771-11.833 38.083-29.125 49.917-49.917 11.833 20.771 29.125 38.083 49.896 49.917-20.75 11.833-38.063 29.125-49.896 49.917-11.833-20.771-29.146-38.083-49.917-49.917zM454.865 14.934c-1.542 0-3.094 0.104-4.667 0.333-43.375 6.333-85.698 19-125.771 37.625-6.406 3.104-19.052 4.729-25.073 3.354l-12.646-3.063c-28.458-6.896-68.281-16.542-102.771-24.625-29.146-7.042-56.323-0.896-74.302 17.083-17.99 18-24.177 45.188-16.99 74.604l27.708 115.083c1.198 4.646-0.052 17.521-3.635 25.479-38.042 79.896-50.635 170.208-36.104 260.542 29.438 181.188 176.438 328.563 357.479 358.438 142.656 23.031 282.302-21.698 383.198-122.76 100.812-100.958 145.292-240.51 122.083-382.865-7.375-44.208-20.688-85.958-39.604-124.229-7.854-15.854-27.083-22.333-42.854-14.521-15.854 7.833-22.354 27.021-14.521 42.854 16.125 32.646 27.5 68.417 33.833 106.312 19.854 121.698-18.125 241.010-104.229 327.229-86.188 86.333-205.646 124.531-327.594 104.812-154.219-25.448-279.521-151.073-304.615-305.49-12.448-77.406-1.729-154.698 31.021-223.469 7.844-17.458 13.354-45.646 7.646-67.812l-27.615-114.708c-2.094-8.563-0.844-13.354 0.052-14.25 0.896-0.917 5.698-2.125 14.146-0.083 34.625 8.125 74.281 17.708 102.594 24.583l13.115 3.167c20.542 4.729 47.958 1.417 67.083-7.833 34.021-15.812 70.375-26.688 107.615-32.125 17.49-2.563 29.594-18.792 27.042-36.292-2.323-15.917-16-27.375-31.625-27.375zM743.688 503.027c-12.958 0-25.167 7.937-29.979 20.792-21.5 57.469-66.75 103.25-124.146 125.604-16.479 6.417-24.625 24.969-18.208 41.437 6.396 16.479 25.021 24.573 41.417 18.208 74.375-28.969 133-88.312 160.896-162.812 6.188-16.552-2.208-34.99-18.771-41.188-3.688-1.385-7.479-2.042-11.208-2.042z" />
<glyph unicode="&#xe948;" glyph-name="ai-fuel-tank" d="M561.5 9.392h-99.417c-41.167 0-74.667 33.5-74.667 74.667v6.812c0 41.167 33.5 74.667 74.667 74.667h99.417c41.167 0 74.667-33.5 74.667-74.667v-6.812c0-41.167-33.5-74.667-74.667-74.667zM462.083 101.538c-5.781 0-10.667-4.875-10.667-10.667v-6.812c0-5.792 4.885-10.667 10.667-10.667h99.417c5.979 0 10.667 4.688 10.667 10.667v6.812c0 5.792-4.875 10.667-10.667 10.667h-99.417zM512.021 101.975c-12.26 0-23.948 7.063-29.26 18.979l-184.75 415.156c-7.177 16.146 0.083 35.063 16.229 42.25 16.198 7.167 35.063-0.104 42.25-16.229l184.74-415.135c7.188-16.167-0.063-35.063-16.219-42.25-4.229-1.896-8.646-2.771-12.99-2.771zM301.26 297.913c-27.615 0-53.688 14.583-68.031 40.104l-164.344 295.823c-16.729 30.385-20.271 65.063-10.021 97.74 10.198 32.531 32.729 58.823 63.458 74.052 139.281 69.646 336.594 96.635 527.719 72.188 17.521-2.24 29.917-18.271 27.688-35.802-2.271-17.521-18.375-29.917-35.812-27.677-176.312 22.573-364.49-2.708-491.073-66.010-15.052-7.448-25.99-20.177-30.917-35.896-4.969-15.865-3.208-32.781 4.958-47.625l164.198-295.563c3.573-6.312 10.969-8.958 17.948-6.229 112.792 45.271 296.74 45.271 409.74-0.104 6.708-2.563 14.25-0.021 17.563 6.042l68.833 124.021c8.604 15.469 28.104 21 43.5 12.448 15.458-8.573 21.042-28.063 12.458-43.51l-68.688-123.729c-18.542-34.188-60.479-49.167-97.271-34.75-98.458 39.521-264.354 39.542-362.521 0.104-9.688-3.812-19.635-5.625-29.385-5.625zM819.625 566.934c-17.812 0-33.042 12.531-36.167 29.792l-10.375 45.073c-4.958 21.469-21.979 38.51-43.333 43.375l-46.542 10.677c-15.854 2.833-28.396 18.052-28.396 35.875 0 17.833 12.542 33.052 29.833 36.188l45.063 10.365c21.458 4.958 38.479 21.969 43.354 43.344l10.688 46.542c2.833 15.833 18.063 28.365 35.875 28.365s33.042-12.531 36.167-29.792l10.375-45.073c4.958-21.469 21.979-38.51 43.333-43.375l46.563-10.677c15.854-2.854 28.375-18.063 28.375-35.885 0-17.448-12.021-32.396-28.729-35.958l-46.167-10.583c-21.458-4.958-38.479-21.969-43.354-43.344l-10.688-46.542c-2.833-15.833-18.063-28.365-35.875-28.365zM793.396 610.684c-0.229-0.823-0.417-1.656-0.563-2.5l0.563 2.5zM845.625 611.767l0.5-2.156c-0.125 0.729-0.292 1.448-0.5 2.156zM781.812 731.746c15.188-9.656 28.125-22.615 37.792-37.833 9.667 15.188 22.625 28.125 37.833 37.802-15.188 9.656-28.125 22.615-37.792 37.833-9.667-15.188-22.625-28.125-37.833-37.802zM940.708 705.507c0.812-0.219 1.625-0.417 2.479-0.563l-2.479 0.563zM699.688 705.736l-2.188-0.5c0.75 0.125 1.479 0.292 2.188 0.5zM696.063 758.527l2.521-0.583c-0.812 0.229-1.667 0.427-2.521 0.583zM793.125 853.85c0.125-0.729 0.292-1.448 0.5-2.156l-0.5 2.156zM846.417 855.277l-0.563-2.5c0.229 0.823 0.417 1.656 0.563 2.5z" />
<glyph unicode="&#xe949;" glyph-name="ai-heart-square" d="M756.063 31.579c-17.208 0-32.083 11.563-36.188 28.125l-11.646 50.917c-5.396 23.833-24.229 42.667-47.979 48.042l-50.437 11.542c-17.125 4.229-28.708 19.104-28.708 36.292 0 17.208 11.583 32.083 28.146 36.188l50.917 11.646c23.833 5.417 42.667 24.25 48.042 48l11.542 50.417c4.229 17.125 19.104 28.708 36.312 28.708 17.188 0 32.063-11.583 36.167-28.146l11.646-50.896c5.396-23.833 24.229-42.667 48-48.063l50.417-11.542c17.125-4.229 28.688-19.104 28.688-36.312 0-17.188-11.563-32.063-28.125-36.167l-50.917-11.646c-23.833-5.396-42.667-24.229-48.042-47.979l-11.542-50.437c-4.229-17.125-19.104-28.688-36.292-28.688zM710.958 206.517c18.542-10.979 34.104-26.542 45.083-45.104 11 18.542 26.563 34.104 45.104 45.104-18.542 10.979-34.104 26.542-45.083 45.083-11-18.521-26.542-34.083-45.104-45.083zM501.333 89.184h-167.25c-132.927 0-241.073 108.146-241.073 241.063v293.115c0 132.927 108.146 241.063 241.073 241.063h334.937c63.458 0 125.667-25.812 170.667-70.812 45.021-44.99 70.833-107.198 70.833-170.677v-210.771c0-17.667-14.333-32-32-32s-32 14.333-32 32v210.771c0 46.625-18.979 92.344-52.083 125.417-33.083 33.094-78.812 52.073-125.417 52.073h-334.937c-97.635 0-177.073-79.427-177.073-177.063v-293.115c0-97.625 79.437-177.063 177.073-177.063h167.25c17.677 0 32-14.333 32-32s-14.323-32-32-32zM500.479 319.579c-30.115 0-59.667 12.271-81.073 33.688l-64.573 65.437c-44.146 45.323-44.146 116.094-0.156 161.271 20.719 21.323 49.917 33.573 80.094 33.573 23.719 0 46.844-7.573 65.74-21.188 18.979 13.667 42.031 21.188 65.677 21.188 30.167 0 59.354-12.24 80.104-33.594 43.979-45.156 43.979-115.927-0.021-161.104l-64.563-65.437c-20.833-21.437-50.51-33.833-81.229-33.833zM434.771 549.548c-12.979 0-25.448-5.177-34.219-14.198-19.625-20.156-19.625-51.719-0.021-71.854l64.271-65.125c18.917-18.917 53.312-18.583 71.198-0.167l64.583 65.448c19.458 19.99 19.458 51.531-0.146 71.677-17.583 18.083-50.937 18.063-68.479 0.021l-7.854-8.271c-5.844-6.156-13.906-9.74-22.396-9.948-8.365-0.51-16.708 2.948-22.875 8.812l-8.958 8.531c-0.292 0.292-0.583 0.573-0.875 0.875-8.771 9.021-21.25 14.198-34.229 14.198z" />
<glyph unicode="&#xe94a;" glyph-name="ai-homepage" d="M786.354 470.402c-18.208 0-33.542 12.26-37.271 29.812l-13.542 58.802c-7.146 30.74-30.646 54.26-61.333 61.323l-59.292 13.646c-17.063 3.656-29.312 18.979-29.312 37.167 0 18.177 12.25 33.5 29.771 37.26l58.833 13.552c30.75 7.146 54.271 30.646 61.333 61.323l13.646 59.302c3.625 17.042 18.937 29.302 37.167 29.302 18.208 0 33.521-12.26 37.25-29.823l13.563-58.771c7.146-30.76 30.646-54.281 61.312-61.333l59.312-13.656c17.042-3.656 29.292-18.979 29.292-37.156 0-18.073-12.083-33.323-29.458-37.198l-59.146-13.615c-30.729-7.146-54.271-30.646-61.312-61.323l-13.667-59.323c-3.625-17.031-18.958-29.292-37.146-29.292zM761.208 514.402c-0.063-0.281-0.125-0.573-0.188-0.854l0.188 0.854zM811.375 514.85l0.188-0.792c-0.063 0.26-0.125 0.531-0.188 0.792zM720.958 671.163c28.417-14.063 51.292-36.948 65.375-65.396 14.063 28.396 36.958 51.271 65.396 65.365-28.396 14.063-51.271 36.948-65.354 65.406-14.063-28.406-36.958-51.281-65.417-65.375zM943.104 646.017c0.271-0.073 0.542-0.125 0.792-0.188l-0.792 0.188zM630 646.111l-0.729-0.177c0.25 0.052 0.479 0.115 0.729 0.177zM628.792 696.465l0.771-0.177c-0.25 0.063-0.521 0.115-0.771 0.177zM761.125 828.225c0.063-0.281 0.125-0.552 0.188-0.823l-0.188 0.823zM811.667 828.757l-0.188-0.865c0.063 0.292 0.125 0.583 0.188 0.865zM768.417-10.671h-511.99c-111.75 0-202.667 90.917-202.667 202.667v305.063c0 62.875 28.417 121.198 77.969 160.021l256.083 199.312c73.25 56.979 175.542 56.969 248.792 0.010 13.958-10.854 16.458-30.958 5.604-44.906-10.833-13.948-30.979-16.448-44.896-5.615-50.146 38.99-120.104 38.969-170.198 0l-255.99-199.24c-33.885-26.552-53.365-66.51-53.365-109.583v-305.063c0-76.458 62.208-138.667 138.667-138.667h511.99c76.458 0 138.667 62.208 138.667 138.667v305.063c0 17.677 14.333 32 32 32s32-14.323 32-32v-305.063c0-111.75-90.917-202.667-202.667-202.667zM512 159.996c-17.677 0-32 14.333-32 32v128c0 17.667 14.323 32 32 32s32-14.333 32-32v-128c0-17.667-14.323-32-32-32z" />
<glyph unicode="&#xe94b;" glyph-name="ai-hospital" d="M843.312-42.671c-17.021 0-31.792 11.521-35.937 28.042l-11.271 49.333c-5.354 23.146-23.146 40.937-46.417 46.333l-48.792 11.542c-16.979 4.292-28.5 19.083-28.479 36.125 0.042 17.042 11.625 31.792 28.146 35.896l49.229 11.229c22.812 5.292 41.042 23.521 46.354 46.437l11.542 48.792c4.188 16.854 18.937 28.437 35.979 28.479h0.063c17.021 0 31.792-11.521 35.937-28.042l11.271-49.354c5.271-22.792 23.5-41.021 46.417-46.333l48.792-11.542c16.896-4.188 28.479-18.979 28.479-36.042 0-17.083-11.583-31.875-28.146-35.979l-49.229-11.229c-23.167-5.375-40.958-23.167-46.354-46.417l-11.542-48.792c-4.188-16.854-18.937-28.437-35.979-28.479h-0.063zM800.792 128.434c17.417-10.583 32.125-25.292 42.729-42.729 10.583 17.417 25.292 32.125 42.729 42.708-17.417 10.583-32.125 25.292-42.729 42.729-10.583-17.417-25.292-32.125-42.729-42.708zM938.25 605.871c-17.667 0-32 14.323-32 32v94.719c0 60.698-49.375 110.073-110.083 110.073h-94.729c-17.667 0-32 14.323-32 32s14.333 32 32 32h94.729c96 0 174.083-78.094 174.083-174.073v-94.719c0-17.677-14.333-32-32-32zM322.135-10.233h-94.719c-95.99 0-174.083 78.083-174.083 174.083v94.708c0 17.667 14.323 32 32 32s32-14.333 32-32v-94.708c0-60.708 49.385-110.083 110.083-110.083h94.719c17.677 0 32-14.333 32-32s-14.323-32-32-32zM85.333 605.444c-17.677 0-32 14.323-32 32v94.719c0 95.979 78.094 174.073 174.083 174.073h94.719c17.677 0 32-14.323 32-32s-14.323-32-32-32h-94.719c-60.698 0-110.083-49.375-110.083-110.073v-94.719c0-17.677-14.323-32-32-32zM547.833 238.079h-71.25c-37.167 0-67.406 30.25-67.406 67.417v39.25h-39.26c-37.167 0-67.406 30.25-67.406 67.417v71.25c0 37.177 30.24 67.417 67.406 67.417h39.26v39.25c0 37.177 30.24 67.417 67.406 67.417h71.25c37.167 0 67.417-30.24 67.417-67.417v-39.25h39.25c37.167 0 67.417-30.24 67.417-67.417v-71.25c0-37.167-30.25-67.417-67.417-67.417h-39.25v-39.25c0-37.167-30.25-67.417-67.417-67.417zM369.917 486.829c-1.937 0-3.406-1.469-3.406-3.417v-71.25c0-1.937 1.469-3.417 3.406-3.417h71.26c17.677 0 32-14.333 32-32v-71.25c0-1.937 1.469-3.417 3.406-3.417h71.25c1.937 0 3.417 1.479 3.417 3.417v71.25c0 17.667 14.333 32 32 32h71.25c1.937 0 3.417 1.479 3.417 3.417v71.25c0 1.948-1.479 3.417-3.417 3.417h-71.25c-17.667 0-32 14.323-32 32v71.25c0 1.948-1.479 3.417-3.417 3.417h-71.25c-1.937 0-3.406-1.469-3.406-3.417v-71.25c0-17.677-14.323-32-32-32h-71.26z" />
<glyph unicode="&#xe94c;" glyph-name="ai-housing" d="M738.979-21.962c-18.208 0-33.521 12.271-37.25 29.833l-13.563 58.75c-7.146 30.75-30.646 54.271-61.312 61.333l-59.312 13.667c-17.021 3.625-29.292 18.937-29.292 37.167 0 18.208 12.271 33.521 29.833 37.25l58.771 13.542c30.729 7.146 54.25 30.646 61.312 61.312l13.667 59.333c3.625 17.021 18.937 29.292 37.146 29.292 18.229 0 33.542-12.271 37.271-29.833l13.542-58.792c7.146-30.729 30.646-54.25 61.312-61.312l59.312-13.646c17.042-3.625 29.312-18.937 29.312-37.146 0-18.083-12.083-33.312-29.437-37.188l-59.167-13.646c-30.75-7.146-54.271-30.646-61.333-61.312l-13.646-59.312c-3.625-17.021-18.937-29.292-37.167-29.292zM713.854 22.038v0zM764.021 22.538l0.188-0.833c-0.063 0.271-0.125 0.563-0.188 0.833zM673.604 178.788c28.396-14.063 51.271-36.937 65.354-65.396 14.063 28.396 36.958 51.271 65.396 65.354-28.396 14.063-51.271 36.958-65.354 65.396-14.063-28.396-36.937-51.271-65.396-65.354zM895.729 153.642v0zM582.729 153.746l-0.833-0.188c0.292 0.063 0.563 0.125 0.833 0.188zM581.375 204.1l0.896-0.188c-0.292 0.063-0.583 0.125-0.896 0.188zM713.771 335.871v0zM764.312 336.392l-0.188-0.896c0.063 0.292 0.125 0.604 0.188 0.896zM882.354 362.663c-17.667 0-32 14.333-32 32v255.573c0 17.677 14.333 32 32 32s32-14.323 32-32v-255.573c0-17.667-14.333-32-32-32zM512-10.671h-194.563c-111.75 0-202.667 90.917-202.667 202.667v458.24c0 17.677 14.323 32 32 32s32-14.323 32-32v-458.24c0-76.458 62.208-138.667 138.667-138.667h194.563c17.677 0 32-14.333 32-32s-14.323-32-32-32zM42.698 549.548c-10.333 0-20.469 4.99-26.635 14.219-9.823 14.698-5.865 34.573 8.823 44.385l406.188 271.365c54.958 36.802 125.698 36.188 180.219-1.583l388.312-270.115c14.521-10.094 18.083-30.031 8-44.542-10.125-14.521-30.083-18.052-44.542-8l-388.271 270.083c-32.729 22.688-75.156 23.063-108.125 0.969l-406.219-271.385c-5.469-3.656-11.646-5.396-17.75-5.396z" />
<glyph unicode="&#xe94d;" glyph-name="ai-landscape" d="M600.312-10.233h-361.802c-64.969 0-124.125 33.083-158.24 88.479-34.094 55.375-36.979 123.063-7.729 181.063l73.333 147.063c24.031 47.833 62.677 77.792 106.063 82.292 43.042 4.385 86.917-16.771 119.969-58.271l9.51-12.083c18.573-23.229 40.531-34.896 61.865-33.354 21.177 1.792 40.792 17.104 55.25 43.146l80.635 145.49c33.292 59.99 78.312 91.479 125.812 89.198 47.833-2.469 88.979-38.521 115.896-101.521l67-156.104c6.958-16.25-0.563-35.063-16.792-42.042-16.271-6.896-35.063 0.563-42.042 16.792l-67 156.167c-16.333 38.229-38.875 61.688-60.354 62.792-21.042 0.854-46.375-19.948-66.563-56.323l-80.625-145.49c-24.781-44.646-63.365-72.292-105.854-75.875-42.458-3.729-85.344 17.312-117.365 57.354l-9.552 12.125c-19.354 24.312-41.771 36.437-63.198 34.333-21.542-2.229-41.229-19.021-55.427-47.271l-73.354-147.083c-19.229-38.167-17.333-82.542 5.010-118.833 22.385-36.354 61.167-58.042 103.75-58.042h361.802c17.667 0 32-14.333 32-32s-14.333-32-32-32zM297.385 586.663c-88.229 0-160 71.771-160 160s71.771 160 160 160 160-71.771 160-160-71.771-160-160-160zM297.385 842.663c-52.937 0-96-43.063-96-96s43.063-96 96-96 96 43.063 96 96-43.063 96-96 96zM822.833-24.316c-17.021 0-31.792 11.5-35.937 28.021l-11.229 48.375c-5.021 22.271-22.5 39.729-44.563 44.708l-47.979 11.125c-17.083 4.292-28.625 19.083-28.625 36.083s11.542 31.792 28.042 35.937l48.354 11.229c22.271 5.021 39.75 22.479 44.729 44.563l11.125 47.979c4.292 17.104 19.063 28.604 36.083 28.604h0.063c17.042-0.021 31.792-11.604 35.896-28.125l11.208-48.25c5-22.292 22.479-39.75 44.563-44.729l47.979-11.125c17.104-4.312 28.604-19.083 28.604-36.083s-11.5-31.771-27.979-35.937l-0.625-0.146-47.792-11.083c-22.271-5.021-39.75-22.479-44.688-44.542l-11.167-48.021c-4.208-16.979-18.958-28.563-36-28.583h-0.063zM782.458 144.017c16.375-10.104 30.229-23.979 40.354-40.375 10.104 16.354 23.979 30.229 40.375 40.333-16.375 10.125-30.229 23.979-40.354 40.375-10.104-16.354-23.979-30.229-40.375-40.333z" />
<glyph unicode="&#xe94e;" glyph-name="ai-loveletter" d="M483.875 232.434c-23.604 0-47.146 7.021-67.625 21.063l-329.24 223.052c-19.437 13.427-31.437 34.281-33.156 57.385-1.729 23.115 7.042 45.552 24.083 61.552l118.375 109.396c12.99 12.010 33.24 11.198 45.219-1.781 12-12.979 11.198-33.229-1.781-45.219l-118.188-109.219c-3.74-3.521-4.052-7.76-3.896-9.958 0.167-2.188 1.094-6.312 5.49-9.344l329.135-222.969c19.208-13.167 44.073-13.167 63.531 0l328.948 223.125c4.5 2.979 5.354 7.073 5.5 9.271 0.125 2.083-0.188 6.063-3.771 9.156l-118.812 108.073c-13.063 11.885-14.021 32.125-2.125 45.198 11.917 13.083 32.125 14.021 45.208 2.135l118.188-107.521c17.292-14.917 26.688-37.406 25.167-61.135-1.521-23.906-13.833-45.167-33.75-58.344l-328.667-222.937c-20.667-13.979-44.281-20.979-67.833-20.979zM881.917 367.35c-17.667 0-32 14.333-32 32v142.083c0 17.677 14.333 32 32 32s32-14.323 32-32v-142.083c0-17.667-14.333-32-32-32zM506.458 55.892h-376.323c-42.115 0-76.375 34.646-76.375 77.229v408.312c0 17.677 14.323 32 32 32s32-14.323 32-32v-408.312c0-7.292 5.552-13.229 12.375-13.229h376.323c17.677 0 32-14.333 32-32s-14.323-32-32-32zM98.99 69.121c-8.188 0-16.375 3.125-22.625 9.375-12.5 12.5-12.5 32.75 0 45.25l241.917 241.917c12.5 12.5 32.75 12.5 45.25 0s12.5-32.75 0-45.25l-241.917-241.917c-6.25-6.25-14.437-9.375-22.625-9.375zM749.229 397.642c-17.667 0-32 14.333-32 32.010v335.365c0 48.229-39.25 87.458-87.479 87.458h-291.833c-48.229 0-87.458-39.229-87.458-87.458v-335.365c0-17.677-14.323-32.010-32-32.010s-32 14.333-32 32.010v335.365c0 83.51 67.948 151.458 151.458 151.458h291.833c83.521 0 151.479-67.948 151.479-151.458v-335.365c0-17.677-14.333-32.010-32-32.010zM483.844 453.975c-19.104 0-164.698 74.958-164.698 173.646 0 53.99 44.229 111.792 110.083 111.792 22.708 0 40.729-6.292 54.615-14.594 13.885 8.302 31.906 14.594 54.615 14.594 68 0 110.083-58.031 110.083-111.792 0-98.688-145.594-173.646-164.698-173.646zM429.229 675.413c-29.677 0-46.083-28.26-46.083-47.792 0-42.417 68.094-88.802 100.698-106.24 32.604 17.437 100.698 63.833 100.698 106.24 0 20.031-16.021 47.792-46.083 47.792-12.75 0-22.917-4.312-31.104-13.177-12.104-13.125-34.917-13.125-47.021 0-8.188 8.865-18.354 13.177-31.104 13.177zM795.312-20.046c-17.208 0-32.083 11.563-36.188 28.125l-11.646 50.917c-5.396 23.833-24.229 42.667-47.979 48.042l-50.437 11.542c-17.125 4.229-28.708 19.104-28.708 36.292 0 17.208 11.583 32.083 28.146 36.188l50.917 11.646c23.833 5.396 42.667 24.229 48.042 47.979l11.542 50.437c4.229 17.125 19.104 28.708 36.312 28.708 17.188 0 32.063-11.583 36.167-28.146l11.646-50.917c5.417-23.833 24.25-42.667 48-48.042l50.417-11.542c17.125-4.229 28.688-19.104 28.688-36.312 0-17.188-11.563-32.063-28.125-36.167l-50.896-11.646c-23.833-5.396-42.667-24.229-48.063-48l-11.542-50.417c-4.229-17.125-19.104-28.688-36.292-28.688zM750.208 154.892c18.542-11 34.104-26.563 45.104-45.104 10.979 18.542 26.542 34.104 45.083 45.083-18.521 11-34.083 26.542-45.083 45.104-10.979-18.542-26.542-34.104-45.104-45.083z" />
</font>
</defs>
</svg>
